<?xml version="1.0" standalone="no"?>
<!DOCTYPE svg PUBLIC "-//W3C//DTD SVG 1.1//EN" "http://www.w3.org/Graphics/SVG/1.1/DTD/svg11.dtd" >
<svg xmlns="http://www.w3.org/2000/svg" xmlns:xlink="http://www.w3.org/1999/xlink" version="1.1">
<metadata>
Created by FontForge 20170731 at Tue Dec 19 23:56:14 2017
 By Aleksey,,,
Font Awesome
</metadata>
<defs>
<font id="FontAwesome5ProLight" horiz-adv-x="512" >
  <font-face 
    font-family="Font Awesome 5 Pro"
    font-weight="400"
    font-stretch="normal"
    units-per-em="512"
    panose-1="2 0 5 3 0 0 0 0 0 0"
    ascent="409"
    descent="-103"
    bbox="-0.5 -64.5 640.261 448.562"
    underline-thickness="0"
    underline-position="5"
    unicode-range="U+F000-F424"
  />
<missing-glyph horiz-adv-x="0" 
 />
    <glyph glyph-name=".notdef" horiz-adv-x="0" 
 />
    <glyph glyph-name=".null" horiz-adv-x="0" 
 />
    <glyph glyph-name="nonmarkingreturn" horiz-adv-x="170" 
 />
    <glyph glyph-name="glass-martini" unicode="&#xf000;" 
d="M508 421q7 8 2.5 17.5t-14.5 9.5h-480q-10 0 -14.5 -9.5t2.5 -17.5l236 -267v-186h-118q-11 0 -18.5 -7.5t-7.5 -18.5q0 -2 2 -4t4 -2h308q2 0 4 2t2 4q0 11 -7.5 18.5t-18.5 7.5h-118v186zM461 416l-205 -232l-204 232h409z" />
    <glyph glyph-name="music" unicode="&#xf001;" 
d="M470 446l-288 -96q-10 -3 -16 -11.5t-6 -18.5v-272q-27 16 -64 16q-40 0 -68 -18.5t-28 -45t28 -45.5t68 -19t68 19t28 45v222l288 96v-206q-27 16 -64 16q-40 0 -68 -18.5t-28 -45t28 -45.5t68 -19t68 19t28 45v352q0 16 -13.5 25.5t-28.5 4.5zM96 -36q-27 0 -47.5 11
t-20.5 25q0 16 24 27q21 9 44 9q27 0 47.5 -11t20.5 -25q0 -16 -24 -27q-21 -9 -44 -9zM192 256v64l288 96v-64zM416 28q-27 0 -47.5 11t-20.5 25q0 16 24 27q21 9 44 9q27 0 47.5 -11t20.5 -25q0 -16 -24 -27q-21 -9 -44 -9z" />
    <glyph glyph-name="search" unicode="&#xf002;" 
d="M509 -34l-129 129q-4 4 -9 4h-10q26 28 40.5 64.5t14.5 76.5q0 57 -28 104.5t-75.5 75.5t-104.5 28t-104.5 -28t-75.5 -75.5t-28 -104.5t28 -104.5t75.5 -75.5t104.5 -28q40 0 76.5 14.5t64.5 40.5v-10q0 -5 4 -8l129 -129q3 -4 8 -4t9 4l10 9q3 4 3 9t-3 8zM208 64
q-48 0 -88.5 23.5t-64 64t-23.5 88.5t23.5 88.5t64 64t88.5 23.5t88.5 -23.5t64 -64t23.5 -88.5t-23.5 -88.5t-64 -64t-88.5 -23.5z" />
    <glyph glyph-name="heart" unicode="&#xf004;" horiz-adv-x="576" 
d="M404 424q-56 0 -116 -55q-60 55 -116 55q-68 0 -108 -39.5t-40 -108.5q0 -46 32 -94q17 -25 36 -43l170 -169q11 -10 26 -10t26 10l170 169q23 22 40 49q28 45 28 88q0 69 -40 108.5t-108 39.5zM461 161l-170 -168q-3 -3 -6 0l-171 169q-24 22 -40 51q-18 34 -18 63
q0 55 30.5 85.5t85.5 30.5q30 0 64 -22q22 -15 52 -45l3 3q25 25 45 39q36 25 68 25q55 0 85.5 -30.5t30.5 -85.5q0 -29 -18 -62q-15 -28 -41 -53z" />
    <glyph glyph-name="star" unicode="&#xf005;" horiz-adv-x="576" 
d="M528 277l-146 21l-65 132q-6 12 -17.5 16t-23 0t-17.5 -16l-65 -132l-146 -21q-13 -2 -20.5 -12t-7 -22t9.5 -21l106 -103l-25 -146q-2 -12 4.5 -22.5t18.5 -13.5t23 3l131 68l131 -68q11 -6 23 -3t18.5 13.5t4.5 22.5l-25 146l106 103q9 9 9.5 21t-7 22t-20.5 12z
M406 130l28 -162l-146 77l-145 -77l27 162l-117 115l162 24l73 147l73 -147l163 -24z" />
    <glyph glyph-name="user" unicode="&#xf007;" 
d="M377 144q26 25 40.5 58.5t14.5 69.5q0 48 -23.5 88.5t-64 64t-88.5 23.5t-88.5 -23.5t-64 -64t-23.5 -88.5q0 -36 14.5 -69.5t40.5 -58.5q-40 0 -71 -19q-30 -17 -47 -47t-17 -64v-25q0 -22 15.5 -37.5t37.5 -15.5h406q22 0 37.5 15.5t15.5 37.5v25q0 34 -17 64t-46 47
q-32 19 -72 19zM112 272q0 39 19.5 72t52.5 52.5t72 19.5t72 -19.5t52.5 -52.5t19.5 -72t-19.5 -72t-52.5 -52.5t-72 -19.5t-72 19.5t-52.5 52.5t-19.5 72zM480 -11q0 -9 -6 -15t-15 -6h-406q-9 0 -15 6t-6 15v25q0 41 28.5 69.5t69.5 28.5h53q35 -16 73 -16t73 16h53
q41 0 69.5 -28.5t28.5 -69.5v-25z" />
    <glyph glyph-name="film" unicode="&#xf008;" 
d="M488 384h-8v-20q0 -5 -3.5 -8.5t-8.5 -3.5h-40q-5 0 -8.5 3.5t-3.5 8.5v20h-320v-20q0 -5 -3.5 -8.5t-8.5 -3.5h-40q-5 0 -8.5 3.5t-3.5 8.5v20h-8q-10 0 -17 -7t-7 -17v-336q0 -10 7 -17t17 -7h8v20q0 5 3.5 8.5t8.5 3.5h40q5 0 8.5 -3.5t3.5 -8.5v-20h320v20
q0 5 3.5 8.5t8.5 3.5h40q5 0 8.5 -3.5t3.5 -8.5v-20h8q10 0 17 7t7 17v336q0 10 -7 17t-17 7zM96 76q0 -5 -3.5 -8.5t-8.5 -3.5h-40q-5 0 -8.5 3.5t-3.5 8.5v40q0 5 3.5 8.5t8.5 3.5h40q5 0 8.5 -3.5t3.5 -8.5v-40zM96 172q0 -5 -3.5 -8.5t-8.5 -3.5h-40q-5 0 -8.5 3.5
t-3.5 8.5v40q0 5 3.5 8.5t8.5 3.5h40q5 0 8.5 -3.5t3.5 -8.5v-40zM96 268q0 -5 -3.5 -8.5t-8.5 -3.5h-40q-5 0 -8.5 3.5t-3.5 8.5v40q0 5 3.5 8.5t8.5 3.5h40q5 0 8.5 -3.5t3.5 -8.5v-40zM384 44q0 -5 -3.5 -8.5t-8.5 -3.5h-232q-5 0 -8.5 3.5t-3.5 8.5v120q0 5 3.5 8.5
t8.5 3.5h232q5 0 8.5 -3.5t3.5 -8.5v-120zM384 220q0 -5 -3.5 -8.5t-8.5 -3.5h-232q-5 0 -8.5 3.5t-3.5 8.5v120q0 5 3.5 8.5t8.5 3.5h232q5 0 8.5 -3.5t3.5 -8.5v-120zM480 76q0 -5 -3.5 -8.5t-8.5 -3.5h-40q-5 0 -8.5 3.5t-3.5 8.5v40q0 5 3.5 8.5t8.5 3.5h40
q5 0 8.5 -3.5t3.5 -8.5v-40zM480 172q0 -5 -3.5 -8.5t-8.5 -3.5h-40q-5 0 -8.5 3.5t-3.5 8.5v40q0 5 3.5 8.5t8.5 3.5h40q5 0 8.5 -3.5t3.5 -8.5v-40zM480 268q0 -5 -3.5 -8.5t-8.5 -3.5h-40q-5 0 -8.5 3.5t-3.5 8.5v40q0 5 3.5 8.5t8.5 3.5h40q5 0 8.5 -3.5t3.5 -8.5v-40z
" />
    <glyph glyph-name="th-large" unicode="&#xf009;" 
d="M0 368v-352q0 -20 14 -34t34 -14h416q20 0 34 14t14 34v352q0 20 -14 34t-34 14h-416q-20 0 -34 -14t-14 -34zM240 384v-176h-208v160q0 7 4.5 11.5t11.5 4.5h192zM32 16v160h208v-176h-192q-7 0 -11.5 4.5t-4.5 11.5zM272 0v176h208v-160q0 -7 -4.5 -11.5t-11.5 -4.5
h-192zM480 208h-208v176h192q7 0 11.5 -4.5t4.5 -11.5v-160z" />
    <glyph glyph-name="th" unicode="&#xf00a;" 
d="M0 368v-352q0 -20 14 -34t34 -14h416q20 0 34 14t14 34v352q0 20 -14 34t-34 14h-416q-20 0 -34 -14t-14 -34zM320 384v-107h-128v107h128zM480 139h-128v106h128v-106zM320 139h-128v106h128v-106zM32 245h128v-106h-128v106zM160 384v-107h-128v91q0 7 4.5 11.5
t11.5 4.5h112zM32 16v91h128v-107h-112q-7 0 -11.5 4.5t-4.5 11.5zM192 0v107h128v-107h-128zM352 0v107h128v-91q0 -7 -4.5 -11.5t-11.5 -4.5h-112zM480 277h-128v107h112q7 0 11.5 -4.5t4.5 -11.5v-91z" />
    <glyph glyph-name="th-list" unicode="&#xf00b;" 
d="M0 368v-352q0 -20 14 -34t34 -14h416q20 0 34 14t14 34v352q0 20 -14 34t-34 14h-416q-20 0 -34 -14t-14 -34zM480 368v-91h-288v107h272q7 0 11.5 -4.5t4.5 -11.5zM480 139h-288v106h288v-106zM32 245h128v-106h-128v106zM160 384v-107h-128v91q0 7 4.5 11.5t11.5 4.5
h112zM32 16v91h128v-107h-112q-7 0 -11.5 4.5t-4.5 11.5zM192 0v107h288v-91q0 -7 -4.5 -11.5t-11.5 -4.5h-272z" />
    <glyph glyph-name="check" unicode="&#xf00c;" horiz-adv-x="448" 
d="M414 356l-281 -280l-99 99q-3 4 -8 4t-8 -4l-12 -11q-3 -4 -3 -9t3 -8l119 -119q4 -4 8.5 -4t8.5 4l300 300q3 3 3 8t-3 9l-12 11q-3 4 -8 4t-8 -4z" />
    <glyph glyph-name="times" unicode="&#xf00d;" horiz-adv-x="384" 
d="M218 192l137 137q3 4 3 9t-3 8l-9 9q-3 3 -8 3t-9 -3l-137 -137l-137 137q-4 3 -9 3t-8 -3l-9 -9q-3 -3 -3 -8t3 -9l138 -137l-138 -137q-3 -4 -3 -9t3 -8l9 -9q3 -3 8 -3t9 3l137 138l137 -138q4 -3 9 -3t8 3l9 9q3 3 3 8t-3 9z" />
    <glyph glyph-name="search-plus" unicode="&#xf00e;" 
d="M320 244v-8q0 -5 -3.5 -8.5t-8.5 -3.5h-84v-84q0 -5 -3.5 -8.5t-8.5 -3.5h-8q-5 0 -8.5 3.5t-3.5 8.5v84h-84q-5 0 -8.5 3.5t-3.5 8.5v8q0 5 3.5 8.5t8.5 3.5h84v84q0 5 3.5 8.5t8.5 3.5h8q5 0 8.5 -3.5t3.5 -8.5v-84h84q5 0 8.5 -3.5t3.5 -8.5zM508 -49l-11 -11
q-4 -4 -8.5 -4t-8.5 4l-129 129q-3 3 -3 8v9q-29 -26 -64.5 -40t-75.5 -14q-56 0 -103.5 27.5t-75.5 74.5t-29 104t27.5 105.5t77 77t105.5 27.5t104 -29t74.5 -75.5t27.5 -103.5q0 -40 -14 -75.5t-40 -64.5h9q5 1 8 -3l129 -129q4 -4 4 -8.5t-4 -8.5zM384 240
q0 48 -23.5 88.5t-64 64t-88.5 23.5t-88.5 -23.5t-64 -64t-23.5 -88.5t23.5 -88.5t64 -64t88.5 -23.5t88.5 23.5t64 64t23.5 88.5z" />
    <glyph glyph-name="search-minus" unicode="&#xf010;" 
d="M308 224h-200q-5 0 -8.5 3.5t-3.5 8.5v8q0 5 3.5 8.5t8.5 3.5h200q5 0 8.5 -3.5t3.5 -8.5v-8q0 -5 -3.5 -8.5t-8.5 -3.5zM508 -49l-11 -11q-4 -4 -8.5 -4t-8.5 4l-129 129q-3 3 -3 8v9q-29 -26 -64.5 -40t-75.5 -14q-56 0 -103.5 27.5t-75.5 74.5t-29 104t27.5 105.5
t77 77t105.5 27.5t104 -29t74.5 -75.5t27.5 -103.5q0 -40 -14 -75.5t-40 -64.5h9q5 1 8 -3l129 -129q4 -4 4 -8.5t-4 -8.5zM384 240q0 48 -23.5 88.5t-64 64t-88.5 23.5t-88.5 -23.5t-64 -64t-23.5 -88.5t23.5 -88.5t64 -64t88.5 -23.5t88.5 23.5t64 64t23.5 88.5z" />
    <glyph glyph-name="power-off" unicode="&#xf011;" 
d="M389 402q53 -34 84 -89.5t31 -120.5q0 -67 -33.5 -124t-90 -90.5t-124 -33.5t-124.5 33.5t-90.5 90t-33.5 123t31 122t84 89.5q5 2 10 1t7 -5l4 -7q3 -5 1.5 -9.5t-5.5 -6.5q-46 -30 -73 -78.5t-27 -104.5q0 -59 29 -108.5t79 -78.5t108.5 -29t108 29t78.5 79t29 107.5
t-27 105.5t-73 77q-4 3 -5.5 7.5t1.5 8.5l4 7q2 5 7 6t10 -1zM272 172v264q0 5 -3.5 8.5t-8.5 3.5h-8q-5 0 -8.5 -3.5t-3.5 -8.5v-264q0 -5 3.5 -8.5t8.5 -3.5h8q5 0 8.5 3.5t3.5 8.5z" />
    <glyph glyph-name="signal" unicode="&#xf012;" horiz-adv-x="544" 
d="M6 64h20q2 0 4 -2t2 -4v-116q0 -2 -2 -4t-4 -2h-20q-2 0 -4 2t-2 4v116q0 2 2 4t4 2zM128 106v-164q0 -2 2 -4t4 -2h20q2 0 4 2t2 4v164q0 2 -2 4t-4 2h-20q-2 0 -4 -2t-2 -4zM256 186v-244q0 -2 2 -4t4 -2h20q2 0 4 2t2 4v244q0 2 -2 4t-4 2h-20q-2 0 -4 -2t-2 -4z
M384 298v-356q0 -2 2 -4t4 -2h20q2 0 4 2t2 4v356q0 2 -2 4t-4 2h-20q-2 0 -4 -2t-2 -4zM512 442v-500q0 -2 2 -4t4 -2h20q2 0 4 2t2 4v500q0 2 -2 4t-4 2h-20q-2 0 -4 -2t-2 -4z" />
    <glyph glyph-name="cog" unicode="&#xf013;" 
d="M483 149l-33 19q3 24 0 48l33 19q7 4 10 12t1 16q-17 56 -58 99q-6 6 -14 7.5t-15 -2.5l-33 -19q-19 15 -42 24v38q0 8 -5 14.5t-14 8.5q-57 14 -114 0q-9 -2 -14 -8.5t-5 -14.5v-38q-23 -9 -42 -24l-33 19q-7 4 -15 2.5t-14 -7.5q-41 -43 -58 -99q-2 -8 1 -16t10 -12
l33 -19q-3 -24 0 -48l-33 -19q-7 -4 -10 -12t-1 -16q17 -56 58 -99q6 -6 14 -7.5t15 2.5l33 19q19 -15 42 -24v-38q0 -8 5 -14.5t14 -8.5q57 -14 114 0q9 2 14 8.5t5 14.5v38q23 9 42 24l33 -19q7 -4 15 -2.5t14 7.5q41 43 58 99q2 8 -1 16t-10 12zM417 48l-46 27
q-21 -17 -33.5 -24.5t-37.5 -16.5v-54q-44 -9 -88 0v54q-25 9 -37.5 16t-33.5 25l-46 -27q-30 34 -44 76l46 27q-5 27 -5 41t5 41l-46 27q14 42 44 76l46 -27q21 18 33.5 25t37.5 16v54q44 9 88 0v-54q25 -9 37.5 -16t33.5 -25l46 27q30 -34 44 -76l-46 -27q5 -27 5 -41
t-5 -41l46 -27q-14 -42 -44 -76zM256 288q-40 0 -68 -28t-28 -68t28 -68t68 -28t68 28t28 68t-28 68t-68 28zM256 128q-26 0 -45 19t-19 45t19 45t45 19t45 -19t19 -45t-19 -45t-45 -19z" />
    <glyph glyph-name="home" unicode="&#xf015;" 
d="M510 221l-62 49v76q0 3 -2 4.5t-4 1.5h-20q-2 0 -4 -1.5t-2 -4.5v-50l-140 113q-9 7 -20 7t-20 -7l-234 -188q-2 -2 -2 -4.5t1 -4.5l13 -15q1 -2 3.5 -2.5t4.5 1.5l42 33v-229q0 -13 9.5 -22.5t22.5 -9.5h116q5 0 8.5 3.5t3.5 8.5v132h64v-132q0 -5 3.5 -8.5t8.5 -3.5
h116q13 0 22.5 9.5t9.5 22.5v229l42 -33q2 -2 4.5 -2t3.5 2l13 16q1 2 1 4.5t-2 3.5v1zM416 0h-96v132q0 5 -3.5 8.5t-8.5 3.5h-104q-5 0 -8.5 -3.5t-3.5 -8.5v-132h-96v255l156 126q4 3 8 0l156 -126v-255z" />
    <glyph glyph-name="clock" unicode="&#xf017;" 
d="M256 440q-67 0 -124 -33.5t-90.5 -90.5t-33.5 -124t33.5 -124t90.5 -90.5t124 -33.5t124 33.5t90.5 90.5t33.5 124t-33.5 124t-90.5 90.5t-124 33.5zM472 192q0 -58 -29 -108t-78.5 -79t-108 -29t-108.5 29t-79 78.5t-29 108t29 108.5t78.5 79t108 29t108.5 -29t79 -78.5
t29 -108.5zM323 104l-81 59q-5 3 -5 9v160q0 5 3.5 8.5t8.5 3.5h14q5 0 8.5 -3.5t3.5 -8.5v-146l71 -52q4 -3 4.5 -7.5t-2.5 -8.5l-8 -12q-3 -4 -8 -4.5t-9 2.5z" />
    <glyph glyph-name="road" unicode="&#xf018;" horiz-adv-x="576" 
d="M260 6l6 116q0 3 1.5 4.5t4.5 1.5h33q5 0 5 -6l6 -116q0 -2 -2 -4t-4 -2h-44q-2 0 -4 2t-2 4zM273 160h31q2 0 3.5 1.5t1.5 3.5l-4 86q-1 5 -5 5h-24q-4 0 -5 -5l-3 -86q-1 -2 0.5 -3.5t4.5 -1.5zM277 280h22q4 0 4 4l-2 48q0 4 -4 4h-18q-4 0 -4 -4l-2 -48q0 -4 4 -4z
M279 352h18q3 0 3 3l-1 26q0 3 -3 3h-16q-2 0 -3 -3l-1 -26q0 -3 3 -3zM6 0h43q4 0 6 4l117 376q0 2 -0.5 3t-2.5 1h-18q-2 0 -3 -2l-148 -374q-1 -3 1 -5.5t5 -2.5zM527 0h43q3 0 5 2.5t1 5.5l-148 374q-1 2 -3 2h-18q-2 0 -2.5 -1t-0.5 -3l118 -376q1 -4 5 -4z" />
    <glyph glyph-name="download" unicode="&#xf019;" 
d="M452 16q0 -8 -6 -14t-14 -6t-14 6t-6 14t6 14t14 6t14 -6t6 -14zM368 36q-8 0 -14 -6t-6 -14t6 -14t14 -6t14 6t6 14t-6 14t-14 6zM512 84v-104q0 -18 -13 -31t-31 -13h-424q-18 0 -31 13t-13 31v104q0 18 13 31t31 13h99l-56 56q-12 13 -11.5 29t11.5 28t28 12h53v155
q0 17 11.5 28.5t28.5 11.5h96q17 0 28.5 -11.5t11.5 -28.5v-155h53q17 0 28 -12t11.5 -28t-11.5 -29l-56 -56h99q18 0 31 -13t13 -31zM250 66q3 -2 6 -2t6 2l140 141q4 4 2 9t-7 5h-85v187q0 3 -2.5 5.5t-5.5 2.5h-96q-3 0 -5.5 -2.5t-2.5 -5.5v-187h-85q-5 0 -7 -5t2 -9z
M480 84q0 5 -3.5 8.5t-8.5 3.5h-131l-53 -52q-11 -12 -28 -12t-28 12l-53 52h-131q-5 0 -8.5 -3.5t-3.5 -8.5v-104q0 -5 3.5 -8.5t8.5 -3.5h424q5 0 8.5 3.5t3.5 8.5v104z" />
    <glyph glyph-name="inbox" unicode="&#xf01c;" horiz-adv-x="576" 
d="M567 221l-105 143q-6 10 -16.5 15t-21.5 5h-272q-11 0 -21.5 -5t-16.5 -15l-105 -143q-9 -13 -9 -29v-144q0 -20 14 -34t34 -14h480q20 0 34 14t14 34v144q0 16 -9 29zM140 345q4 7 12 7h272q8 0 12 -7l89 -121h-137l-32 -64h-136l-32 64h-137zM544 176v-128
q0 -7 -4.5 -11.5t-11.5 -4.5h-480q-7 0 -11.5 4.5t-4.5 11.5v128q0 7 4.5 11.5t11.5 4.5h120l32 -64h176l32 64h120q7 0 11.5 -4.5t4.5 -11.5z" />
    <glyph glyph-name="redo" unicode="&#xf01e;" 
d="M492 440h-10q-5 0 -8.5 -3.5t-3.5 -8.5v-111q-33 57 -90 90t-124.5 33t-124.5 -33.5t-90 -90.5t-33 -124.5t33.5 -124t90.5 -90t124 -33.5q47 0 90 17t76 47q4 3 4 8.5t-3 8.5l-7 7q-4 4 -8.5 4t-8.5 -3q-29 -26 -65.5 -40.5t-77.5 -14.5q-58 0 -107 28.5t-78 78
t-29 107.5t28.5 107t78 78t107.5 29q61 0 112 -31.5t78 -84.5h-114q-5 0 -8.5 -3.5t-3.5 -8.5v-10q0 -5 3.5 -8.5t8.5 -3.5h160q5 0 8.5 3.5t3.5 8.5v160q0 5 -3.5 8.5t-8.5 3.5z" />
    <glyph glyph-name="sync" unicode="&#xf021;" 
d="M492 440h-10q-5 0 -8.5 -3.5t-3.5 -8.5v-111q-33 56 -90 89.5t-123 33.5t-122 -31.5t-89.5 -85.5t-37.5 -118q0 -6 3.5 -9.5t8.5 -3.5h10q5 0 8.5 3.5t3.5 7.5q3 56 32.5 102.5t77.5 73.5t104 27q61 0 112 -31.5t78 -84.5h-114q-5 0 -8.5 -3.5t-3.5 -8.5v-10
q0 -5 3.5 -8.5t8.5 -3.5h160q5 0 8.5 3.5t3.5 8.5v160q0 5 -3.5 8.5t-8.5 3.5zM492 192h-10q-5 0 -8.5 -3.5t-3.5 -7.5q-3 -56 -32.5 -102.5t-77.5 -73.5t-104 -27q-61 0 -112 31.5t-78 84.5h114q5 0 8.5 3.5t3.5 8.5v10q0 5 -3.5 8.5t-8.5 3.5h-160q-5 0 -8.5 -3.5
t-3.5 -8.5v-160q0 -5 3.5 -8.5t8.5 -3.5h10q5 0 8.5 3.5t3.5 8.5v111q33 -56 90 -89.5t123 -33.5t122 31.5t89.5 85.5t37.5 118q0 6 -3.5 9.5t-8.5 3.5z" />
    <glyph glyph-name="list-alt" unicode="&#xf022;" 
d="M464 384q7 0 11.5 -4.5t4.5 -11.5v-352q0 -7 -4.5 -11.5t-11.5 -4.5h-416q-7 0 -11.5 4.5t-4.5 11.5v352q0 7 4.5 11.5t11.5 4.5h416zM464 416h-416q-20 0 -34 -14t-14 -34v-352q0 -20 14 -34t34 -14h416q20 0 34 14t14 34v352q0 20 -14 34t-34 14zM128 320
q-13 0 -22.5 -9.5t-9.5 -22.5t9.5 -22.5t22.5 -9.5t22.5 9.5t9.5 22.5t-9.5 22.5t-22.5 9.5zM128 224q-13 0 -22.5 -9.5t-9.5 -22.5t9.5 -22.5t22.5 -9.5t22.5 9.5t9.5 22.5t-9.5 22.5t-22.5 9.5zM128 128q-13 0 -22.5 -9.5t-9.5 -22.5t9.5 -22.5t22.5 -9.5t22.5 9.5
t9.5 22.5t-9.5 22.5t-22.5 9.5zM416 276v24q0 2 -2 4t-4 2h-212q-2 0 -4 -2t-2 -4v-24q0 -2 2 -4t4 -2h212q2 0 4 2t2 4zM416 180v24q0 2 -2 4t-4 2h-212q-2 0 -4 -2t-2 -4v-24q0 -2 2 -4t4 -2h212q2 0 4 2t2 4zM416 84v24q0 2 -2 4t-4 2h-212q-2 0 -4 -2t-2 -4v-24
q0 -2 2 -4t4 -2h212q2 0 4 2t2 4z" />
    <glyph glyph-name="lock" unicode="&#xf023;" horiz-adv-x="448" 
d="M400 224h-16v63q0 43 -21.5 80t-58 59t-80 22t-80.5 -21.5t-58.5 -58.5t-21.5 -80v-64h-16q-20 0 -34 -14t-14 -34v-192q0 -20 14 -34t34 -14h352q20 0 34 14t14 34v192q0 20 -14 34t-34 14zM96 288q0 35 17 64.5t46.5 46.5t64.5 17t64.5 -17t46.5 -46.5t17 -64.5v-64
h-256v64zM400 -32h-352q-7 0 -11.5 4.5t-4.5 11.5v192q0 7 4.5 11.5t11.5 4.5h352q7 0 11.5 -4.5t4.5 -11.5v-192q0 -7 -4.5 -11.5t-11.5 -4.5z" />
    <glyph glyph-name="flag" unicode="&#xf024;" 
d="M344 373q-18 0 -38 5q-13 3 -38 11q-29 10 -45 13q-26 6 -50 6q-41 0 -77 -14q3 22 -12.5 38.5t-37.5 15.5q-18 -1 -31.5 -14t-14.5 -30.5t8 -30.5t24 -18v-407q0 -5 3.5 -8.5t8.5 -3.5h8q5 0 8.5 3.5t3.5 8.5v122q29 13 56 20q36 9 80 9q18 0 38 -5q13 -3 38 -11
q29 -10 45 -13q26 -6 50 -6q37 0 70 12q30 10 60 31q11 7 11 20v261q0 14 -11 21t-23 1q-80 -37 -134 -37zM48 420q8 0 14 -6t6 -14t-6 -14t-14 -6t-14 6t-6 14t6 14t14 6zM480 131q-20 -15 -46 -24q-32 -11 -63 -11q-21 0 -44 5q-14 4 -41.5 12.5t-41.5 11.5q-23 6 -44 6
q-35 0 -73 -7.5t-63 -18.5v236q20 15 46 24q32 11 63 11q21 0 44 -5q14 -4 41.5 -12.5t41.5 -11.5q23 -6 44 -6q32 0 73 12q34 9 63 23v-245z" />
    <glyph glyph-name="headphones" unicode="&#xf025;" 
d="M256 416q-70 0 -128.5 -34.5t-93 -93t-34.5 -128.5v-51q0 -10 8 -14l24 -14v-1q0 -30 15 -56t41 -41t56 -15h24q10 0 17 7t7 17v176q0 10 -7 17t-17 7h-24q-37 0 -66 -21.5t-40 -55.5l-6 3v42q0 61 30 112.5t81.5 81.5t112.5 30t112.5 -30t81.5 -81.5t30 -112.5v-42
l-6 -3q-11 34 -40 55.5t-66 21.5h-24q-10 0 -17 -7t-7 -17v-176q0 -10 7 -17t17 -7h24q30 0 56 15t41 41t15 56v1l24 14q8 4 8 14v51q0 70 -34.5 128.5t-93 93t-128.5 34.5zM144 160h16v-160h-16q-33 0 -56.5 23.5t-23.5 56.5t23.5 56.5t56.5 23.5zM368 0h-16v160h16
q33 0 56.5 -23.5t23.5 -56.5t-23.5 -56.5t-56.5 -23.5z" />
    <glyph glyph-name="volume-off" unicode="&#xf026;" horiz-adv-x="256" 
d="M256 360v-336q0 -10 -7 -17t-17 -7t-17 7l-89 89h-102q-10 0 -17 7t-7 17v144q0 10 7 17t17 7h102l89 89q7 7 17 7t17 -7t7 -17zM224 341l-78 -78q-7 -7 -17 -7h-97v-128h97q10 0 17 -7l78 -78v298z" />
    <glyph glyph-name="volume-down" unicode="&#xf027;" horiz-adv-x="384" 
d="M342 267q-6 4 -12.5 2t-10 -7.5t-1.5 -12t7 -9.5q13 -8 20 -20.5t7 -27.5t-7 -27.5t-20 -20.5q-5 -3 -7 -9.5t1.5 -12t10 -7.5t12.5 2q20 12 31 32t11 43t-11 43t-31 32zM256 360v-336q0 -10 -7 -17t-17 -7t-17 7l-89 89h-102q-10 0 -17 7t-7 17v144q0 10 7 17t17 7h102
l89 89q7 7 17 7t17 -7t7 -17zM224 341l-78 -78q-7 -7 -17 -7h-97v-128h97q10 0 17 -7l78 -78v298z" />
    <glyph glyph-name="volume-up" unicode="&#xf028;" horiz-adv-x="576" 
d="M576 192q0 -74 -36.5 -137.5t-97.5 -101.5q-6 -3 -12.5 -1.5t-10 7t-1.5 12t7 9.5q55 34 87 90t32 122t-32 122t-87 90q-5 3 -7 9.5t1.5 12t10 7t12.5 -1.5q61 -38 97.5 -101.5t36.5 -137.5zM480 192q0 49 -24 90.5t-64 66.5q-6 4 -12.5 2t-10 -7.5t-1.5 -12t7 -9.5
q34 -21 53.5 -55.5t19.5 -74.5t-19.5 -74.5t-53.5 -55.5q-5 -3 -7 -9.5t1.5 -12t10 -7.5t12.5 2q40 25 64 66.5t24 90.5zM342 267q-6 4 -12.5 2t-10 -7.5t-1.5 -12t7 -9.5q13 -8 20 -20.5t7 -27.5t-7 -27.5t-20 -20.5q-5 -3 -7 -9.5t1.5 -12t10 -7.5t12.5 2q20 12 31 32
t11 43t-11 43t-31 32zM256 360v-336q0 -10 -7 -17t-17 -7t-17 7l-89 89h-102q-10 0 -17 7t-7 17v144q0 10 7 17t17 7h102l89 89q7 7 17 7t17 -7t7 -17zM224 341l-78 -78q-7 -7 -17 -7h-97v-128h97q10 0 17 -7l78 -78v298z" />
    <glyph glyph-name="qrcode" unicode="&#xf029;" horiz-adv-x="448" 
d="M0 224h192v192h-192v-192zM32 384h128v-128h-128v128zM256 416v-192h192v192h-192zM416 256h-128v128h128v-128zM0 -32h192v192h-192v-192zM32 128h128v-128h-128v128zM64 352h64v-64h-64v64zM384 288h-64v64h64v-64zM64 96h64v-64h-64v64zM416 160h32v-128h-128v32h-32
v-96h-32v192h96v-32h64v32zM416 0h32v-32h-32v32zM352 0h32v-32h-32v32z" />
    <glyph glyph-name="barcode" unicode="&#xf02a;" 
d="M0 0v384h18v-384h-18zM27 0v384h9v-384h-9zM54 0v384h9v-384h-9zM99 0v384h9v-384h-9zM135 0v384h18v-384h-18zM180 0v384h9v-384h-9zM198 0v384h9v-384h-9zM216 0v384h9v-384h-9zM251 0v384h18v-384h-18zM296 0v384h18v-384h-18zM332 0v384h18v-384h-18zM368 0v384h18
v-384h-18zM395 0v384h18v-384h-18zM440 0v384h27v-384h-27zM476 0v384h9v-384h-9zM494 0v384h18v-384h-18z" />
    <glyph glyph-name="tag" unicode="&#xf02b;" 
d="M498 222l-212 212q-14 14 -34 14h-204q-20 0 -34 -14t-14 -34v-204q0 -20 14 -34l212 -212q14 -14 34 -14t34 14l204 204q14 14 14 34t-14 34zM475 177l-204 -204q-4 -5 -11 -5t-11 5l-212 212q-5 4 -5 11v204q0 7 4.5 11.5t11.5 4.5h204q7 0 11 -5l212 -212q5 -4 5 -11
t-5 -11zM144 324q8 0 14 -6t6 -14t-6 -14t-14 -6t-14 6t-6 14t6 14t14 6zM144 352q-20 0 -34 -14t-14 -34t14 -34t34 -14t34 14t14 34t-14 34t-34 14z" />
    <glyph glyph-name="tags" unicode="&#xf02c;" horiz-adv-x="640" 
d="M626 154l-204 -204q-14 -14 -34 -14t-34 14l-2 2l23 22l2 -1q4 -5 11 -5t11 5l204 204q5 4 5 11t-5 11l-212 212q-4 5 -11 5h-19l-32 32h51q20 0 34 -14l212 -212q14 -14 14 -34t-14 -34zM252 416h-204q-7 0 -11.5 -4.5t-4.5 -11.5v-204q0 -7 5 -11l212 -212q4 -5 11 -5
t11 5l204 204q5 4 5 11t-5 11l-212 212q-4 5 -11 5zM252 448q20 0 34 -14l212 -212q14 -14 14 -34t-14 -34l-204 -204q-14 -14 -34 -14t-34 14l-212 212q-14 14 -14 34v204q0 20 14 34t34 14h204zM144 324q-8 0 -14 -6t-6 -14t6 -14t14 -6t14 6t6 14t-6 14t-14 6zM144 352
q20 0 34 -14t14 -34t-14 -34t-34 -14t-34 14t-14 34t14 34t34 14z" />
    <glyph glyph-name="book" unicode="&#xf02d;" horiz-adv-x="448" 
d="M356 288h-168q-5 0 -8.5 3.5t-3.5 8.5v8q0 5 3.5 8.5t8.5 3.5h168q5 0 8.5 -3.5t3.5 -8.5v-8q0 -5 -3.5 -8.5t-8.5 -3.5zM368 236v8q0 5 -3.5 8.5t-8.5 3.5h-168q-5 0 -8.5 -3.5t-3.5 -8.5v-8q0 -5 3.5 -8.5t8.5 -3.5h168q5 0 8.5 3.5t3.5 8.5zM433 -32h3q5 0 8.5 -3.5
t3.5 -8.5v-8q0 -5 -3.5 -8.5t-8.5 -3.5h-356q-33 0 -56.5 23.5t-23.5 56.5v352q0 33 23.5 56.5t56.5 23.5h344q10 0 17 -7t7 -17v-368q0 -7 -4 -13t-11 -9q-3 -13 -3 -32t3 -34zM128 64h288v352h-288v-352zM32 48q21 16 48 16h16v352h-16q-20 0 -34 -14t-14 -34v-320z
M404 -32q-5 32 0 64h-324q-23 0 -35.5 -9.5t-12.5 -22.5t12.5 -22.5t35.5 -9.5h324z" />
    <glyph glyph-name="bookmark" unicode="&#xf02e;" horiz-adv-x="384" 
d="M336 448h-288q-20 0 -34 -14t-14 -34v-464l192 112l192 -112v464q0 20 -14 34t-34 14zM352 -8l-160 93l-160 -93v408q0 7 4.5 11.5t11.5 4.5h288q7 0 11.5 -4.5t4.5 -11.5v-408z" />
    <glyph glyph-name="print" unicode="&#xf02f;" 
d="M416 256v110q0 10 -7 17l-58 58q-7 7 -17 7h-214q-10 0 -17 -7t-7 -17v-168q-40 0 -68 -28t-28 -68v-136q0 -10 7 -17t17 -7h72v-40q0 -10 7 -17t17 -7h272q10 0 17 7t7 17v40h72q10 0 17 7t7 17v136q0 40 -28 68t-68 28zM128 416h203l53 -53v-171h-256v224zM384 -32
h-256v96h256v-96zM480 32h-64v40q0 10 -7 17t-17 7h-272q-10 0 -17 -7t-7 -17v-40h-64v128q0 26 19 45t45 19v-40q0 -10 7 -17t17 -7h272q10 0 17 7t7 17v40q26 0 45 -19t19 -45v-128zM452 144q0 -8 -6 -14t-14 -6t-14 6t-6 14t6 14t14 6t14 -6t6 -14z" />
    <glyph glyph-name="camera" unicode="&#xf030;" 
d="M324 384q6 0 8 -5l22 -59h110q7 0 11.5 -4.5t4.5 -11.5v-288q0 -7 -4.5 -11.5t-11.5 -4.5h-416q-7 0 -11.5 4.5t-4.5 11.5v288q0 7 4.5 11.5t11.5 4.5h110l20 54q2 4 6 7t9 3h131zM324 416h-131q-15 0 -27 -8.5t-18 -22.5l-12 -33h-88q-20 0 -34 -14t-14 -34v-288
q0 -20 14 -34t34 -14h416q20 0 34 14t14 34v288q0 20 -14 34t-34 14h-88l-14 38q-5 12 -15 19t-23 7zM256 40q-33 0 -60.5 16t-43.5 43.5t-16 60.5t16 60.5t43.5 43.5t60.5 16t60.5 -16t43.5 -43.5t16 -60.5t-16 -60.5t-43.5 -43.5t-60.5 -16zM256 248q-36 0 -62 -26
t-26 -62t26 -62t62 -26t62 26t26 62t-26 62t-62 26z" />
    <glyph glyph-name="font" unicode="&#xf031;" horiz-adv-x="448" 
d="M233 416h-18q-8 0 -11 -8l-153 -408h-23q-5 0 -8.5 -3.5t-3.5 -8.5v-8q0 -5 3.5 -8.5t8.5 -3.5h88q5 0 8.5 3.5t3.5 8.5v8q0 5 -3.5 8.5t-8.5 3.5h-28l45 120h182l45 -120h-28q-5 0 -8.5 -3.5t-3.5 -8.5v-8q0 -5 3.5 -8.5t8.5 -3.5h88q5 0 8.5 3.5t3.5 8.5v8
q0 5 -3.5 8.5t-8.5 3.5h-23l-153 408q-3 8 -11 8zM145 153l75 201q2 5 4 11q2 -6 4 -11l75 -201h-158z" />
    <glyph glyph-name="bold" unicode="&#xf032;" horiz-adv-x="320" 
d="M249 206q26 14 39.5 39t13.5 56.5t-13.5 58.5t-35.5 39q-30 17 -77 17h-164q-5 0 -8.5 -3.5t-3.5 -8.5v-8q0 -5 3.5 -8.5t8.5 -3.5h20v-384h-20q-5 0 -8.5 -3.5t-3.5 -8.5v-8q0 -5 3.5 -8.5t8.5 -3.5h170q42 0 67 10q32 14 51.5 45.5t19.5 71t-19.5 69.5t-51.5 42z
M66 384h110q37 0 57 -13q16 -10 25 -28t9 -41q0 -37 -22 -60t-58 -23h-121v165zM233 8q-18 -8 -51 -8h-116v187h124q43 0 69 -26t26 -68q0 -30 -14 -52.5t-38 -32.5z" />
    <glyph glyph-name="italic" unicode="&#xf033;" horiz-adv-x="256" 
d="M103 384h45l-75 -384h-49q-5 0 -8 -2.5t-4 -7.5l-2 -8q-1 -5 2.5 -9.5t9.5 -4.5h129q4 0 7.5 2.5t4.5 7.5l1 8q1 5 -2.5 9.5t-8.5 4.5h-46l75 384h50q5 0 8 2.5t4 7.5l2 8q1 5 -2.5 9.5t-9.5 4.5h-130q-4 0 -7.5 -2.5t-3.5 -7.5l-2 -8q-1 -5 2.5 -9.5t9.5 -4.5z" />
    <glyph glyph-name="text-height" unicode="&#xf034;" horiz-adv-x="448" 
d="M0 332v72q0 5 3.5 8.5t8.5 3.5h264q5 0 8.5 -3.5t3.5 -8.5v-72q0 -5 -3.5 -8.5t-8.5 -3.5h-8q-5 0 -8.5 3.5t-3.5 8.5v52h-95v-384h43q5 0 8.5 -3.5t3.5 -8.5v-8q0 -5 -3.5 -8.5t-8.5 -3.5h-120q-5 0 -8.5 3.5t-3.5 8.5v8q0 5 3.5 8.5t8.5 3.5h43v384h-95v-52
q0 -5 -3.5 -8.5t-8.5 -3.5h-8q-5 0 -8.5 3.5t-3.5 8.5zM394 413l-40 -48q-3 -4 -1 -8.5t7 -4.5h24v-320h-24q-5 0 -7 -4.5t1 -8.5l40 -48q2 -3 6 -3t6 3l40 48q3 4 1 8.5t-7 4.5h-24v320h24q5 0 7 4.5t-1 8.5l-40 48q-2 3 -6 3t-6 -3z" />
    <glyph glyph-name="text-width" unicode="&#xf035;" horiz-adv-x="448" 
d="M0 332v72q0 5 3.5 8.5t8.5 3.5h424q5 0 8.5 -3.5t3.5 -8.5v-72q0 -5 -3.5 -8.5t-8.5 -3.5h-8q-5 0 -8.5 3.5t-3.5 8.5v52h-175v-256h43q5 0 8.5 -3.5t3.5 -8.5v-8q0 -5 -3.5 -8.5t-8.5 -3.5h-120q-5 0 -8.5 3.5t-3.5 8.5v8q0 5 3.5 8.5t8.5 3.5h43v256h-175v-52
q0 -5 -3.5 -8.5t-8.5 -3.5h-8q-5 0 -8.5 3.5t-3.5 8.5zM445 22l-48 40q-4 3 -8.5 1t-4.5 -7v-24h-320v24q0 5 -4.5 7t-8.5 -1l-48 -40q-3 -2 -3 -6t3 -6l48 -40q4 -3 8.5 -1t4.5 7v24h320v-24q0 -5 4.5 -7t8.5 1l48 40q3 2 3 6t-3 6z" />
    <glyph glyph-name="align-left" unicode="&#xf036;" horiz-adv-x="448" 
d="M288 396v-24q0 -2 -2 -4t-4 -2h-276q-2 0 -4 2t-2 4v24q0 2 2 4t4 2h276q2 0 4 -2t2 -4zM6 238h436q2 0 4 2t2 4v24q0 2 -2 4t-4 2h-436q-2 0 -4 -2t-2 -4v-24q0 -2 2 -4t4 -2zM6 -18h436q2 0 4 2t2 4v24q0 2 -2 4t-4 2h-436q-2 0 -4 -2t-2 -4v-24q0 -2 2 -4t4 -2z
M282 146h-276q-2 0 -4 -2t-2 -4v-24q0 -2 2 -4t4 -2h276q2 0 4 2t2 4v24q0 2 -2 4t-4 2z" />
    <glyph glyph-name="align-center" unicode="&#xf037;" horiz-adv-x="448" 
d="M352 396v-24q0 -2 -2 -4t-4 -2h-244q-2 0 -4 2t-2 4v24q0 2 2 4t4 2h244q2 0 4 -2t2 -4zM6 238h436q2 0 4 2t2 4v24q0 2 -2 4t-4 2h-436q-2 0 -4 -2t-2 -4v-24q0 -2 2 -4t4 -2zM6 -18h436q2 0 4 2t2 4v24q0 2 -2 4t-4 2h-436q-2 0 -4 -2t-2 -4v-24q0 -2 2 -4t4 -2z
M346 146h-244q-2 0 -4 -2t-2 -4v-24q0 -2 2 -4t4 -2h244q2 0 4 2t2 4v24q0 2 -2 4t-4 2z" />
    <glyph glyph-name="align-right" unicode="&#xf038;" horiz-adv-x="448" 
d="M160 372v24q0 2 2 4t4 2h276q2 0 4 -2t2 -4v-24q0 -2 -2 -4t-4 -2h-276q-2 0 -4 2t-2 4zM6 238h436q2 0 4 2t2 4v24q0 2 -2 4t-4 2h-436q-2 0 -4 -2t-2 -4v-24q0 -2 2 -4t4 -2zM6 -18h436q2 0 4 2t2 4v24q0 2 -2 4t-4 2h-436q-2 0 -4 -2t-2 -4v-24q0 -2 2 -4t4 -2z
M166 110h276q2 0 4 2t2 4v24q0 2 -2 4t-4 2h-276q-2 0 -4 -2t-2 -4v-24q0 -2 2 -4t4 -2z" />
    <glyph glyph-name="align-justify" unicode="&#xf039;" horiz-adv-x="448" 
d="M0 372v24q0 2 2 4t4 2h436q2 0 4 -2t2 -4v-24q0 -2 -2 -4t-4 -2h-436q-2 0 -4 2t-2 4zM6 238h436q2 0 4 2t2 4v24q0 2 -2 4t-4 2h-436q-2 0 -4 -2t-2 -4v-24q0 -2 2 -4t4 -2zM6 -18h436q2 0 4 2t2 4v24q0 2 -2 4t-4 2h-436q-2 0 -4 -2t-2 -4v-24q0 -2 2 -4t4 -2zM6 110
h436q2 0 4 2t2 4v24q0 2 -2 4t-4 2h-436q-2 0 -4 -2t-2 -4v-24q0 -2 2 -4t4 -2z" />
    <glyph glyph-name="list" unicode="&#xf03a;" 
d="M506 334h-372q-2 0 -4 2t-2 4v24q0 2 2 4t4 2h372q2 0 4 -2t2 -4v-24q0 -2 -2 -4t-4 -2zM512 180v24q0 2 -2 4t-4 2h-372q-2 0 -4 -2t-2 -4v-24q0 -2 2 -4t4 -2h372q2 0 4 2t2 4zM512 20v24q0 2 -2 4t-4 2h-372q-2 0 -4 -2t-2 -4v-24q0 -2 2 -4t4 -2h372q2 0 4 2t2 4z
M84 328v48q0 5 -3.5 8.5t-8.5 3.5h-48q-5 0 -8.5 -3.5t-3.5 -8.5v-48q0 -5 3.5 -8.5t8.5 -3.5h48q5 0 8.5 3.5t3.5 8.5zM84 168v48q0 5 -3.5 8.5t-8.5 3.5h-48q-5 0 -8.5 -3.5t-3.5 -8.5v-48q0 -5 3.5 -8.5t8.5 -3.5h48q5 0 8.5 3.5t3.5 8.5zM84 8v48q0 5 -3.5 8.5t-8.5 3.5
h-48q-5 0 -8.5 -3.5t-3.5 -8.5v-48q0 -5 3.5 -8.5t8.5 -3.5h48q5 0 8.5 3.5t3.5 8.5z" />
    <glyph glyph-name="outdent" unicode="&#xf03b;" horiz-adv-x="448" 
d="M0 372v24q0 2 2 4t4 2h436q2 0 4 -2t2 -4v-24q0 -2 -2 -4t-4 -2h-436q-2 0 -4 2t-2 4zM198 238h244q2 0 4 2t2 4v24q0 2 -2 4t-4 2h-244q-2 0 -4 -2t-2 -4v-24q0 -2 2 -4t4 -2zM6 -18h436q2 0 4 2t2 4v24q0 2 -2 4t-4 2h-436q-2 0 -4 -2t-2 -4v-24q0 -2 2 -4t4 -2z
M198 110h244q2 0 4 2t2 4v24q0 2 -2 4t-4 2h-244q-2 0 -4 -2t-2 -4v-24q0 -2 2 -4t4 -2zM128 288v-192q0 -11 -10 -15t-17 4l-96 96q-5 4 -5 11t5 11l96 96q7 8 17 4t10 -15zM96 135v114l-57 -57z" />
    <glyph glyph-name="indent" unicode="&#xf03c;" horiz-adv-x="448" 
d="M0 372v24q0 2 2 4t4 2h436q2 0 4 -2t2 -4v-24q0 -2 -2 -4t-4 -2h-436q-2 0 -4 2t-2 4zM166 238h276q2 0 4 2t2 4v24q0 2 -2 4t-4 2h-276q-2 0 -4 -2t-2 -4v-24q0 -2 2 -4t4 -2zM6 -18h436q2 0 4 2t2 4v24q0 2 -2 4t-4 2h-436q-2 0 -4 -2t-2 -4v-24q0 -2 2 -4t4 -2z
M166 110h276q2 0 4 2t2 4v24q0 2 -2 4t-4 2h-276q-2 0 -4 -2t-2 -4v-24q0 -2 2 -4t4 -2zM0 96v192q0 11 10 15t17 -4l96 -96q5 -4 5 -11t-5 -11l-96 -96q-7 -8 -17 -4t-10 15zM32 249v-114l57 57z" />
    <glyph glyph-name="video" unicode="&#xf03d;" horiz-adv-x="576" 
d="M528 384h-12q-20 0 -34 -14l-98 -98v64q0 20 -14 34t-34 14h-288q-20 0 -34 -14t-14 -34v-288q0 -20 14 -34t34 -14h288q20 0 34 14t14 34v64l98 -98q14 -14 34 -14h12q20 0 34 14t14 34v288q0 20 -14 34t-34 14zM352 48q0 -7 -4.5 -11.5t-11.5 -4.5h-288q-7 0 -11.5 4.5
t-4.5 11.5v288q0 7 4.5 11.5t11.5 4.5h288q7 0 11.5 -4.5t4.5 -11.5v-288zM544 48q0 -7 -4.5 -11.5t-11.5 -4.5h-12q-7 0 -11 5l-121 120v70l121 120q4 5 11 5h12q7 0 11.5 -4.5t4.5 -11.5v-288z" />
    <glyph glyph-name="image" unicode="&#xf03e;" 
d="M464 384h-416q-20 0 -34 -14t-14 -34v-288q0 -20 14 -34t34 -14h416q20 0 34 14t14 34v288q0 20 -14 34t-34 14zM480 48q0 -7 -4.5 -11.5t-11.5 -4.5h-416q-7 0 -11.5 4.5t-4.5 11.5v288q0 7 4.5 11.5t11.5 4.5h416q7 0 11.5 -4.5t4.5 -11.5v-288zM112 216
q23 0 39.5 16.5t16.5 39.5t-16.5 39.5t-39.5 16.5t-39.5 -16.5t-16.5 -39.5t16.5 -39.5t39.5 -16.5zM112 296q10 0 17 -7t7 -17t-7 -17t-17 -7t-17 7t-7 17t7 17t17 7zM319 273l-95 -95l-31 31q-7 7 -17 7t-17 -7l-88 -88q-7 -7 -7 -17v-28q0 -5 3.5 -8.5t8.5 -3.5h360
q5 0 8.5 3.5t3.5 8.5v92q0 10 -7 17l-88 88q-7 7 -17 7t-17 -7zM416 96h-320v5l80 80l48 -48l112 112l80 -80v-69z" />
    <glyph glyph-name="pencil" unicode="&#xf040;" 
d="M493 392l-37 37q-19 19 -45.5 19t-45.5 -19l-352 -352l-13 -114q-1 -12 7 -20t20 -7l114 13l352 352q19 19 19 45.5t-19 45.5zM398 251l-224 -224v35h-48v48h-35l224 224zM126 -21l-59 -6l-30 30l6 59l20 20h35v-48h48v-35zM471 324l-50 -50l-83 83l50 50q9 9 22.5 9
t22.5 -9l38 -38q9 -9 9 -22.5t-9 -22.5z" />
    <glyph glyph-name="map-marker" unicode="&#xf041;" horiz-adv-x="384" 
d="M192 448q-52 0 -96 -26t-70 -70t-26 -96q0 -32 8 -56.5t31 -60.5q16 -25 66 -97l67 -96q7 -10 20 -10t20 10l67 96q50 72 66 97q23 36 31 60.5t8 56.5q0 52 -26 96t-70 70t-96 26zM192 -26q-24 35 -62 89q-48 69 -63 91q-21 34 -28 54.5t-7 47.5q0 32 12 61t35 52t52 35
t61 12t61 -12t52 -35t35 -52t12 -61q0 -27 -7 -47.5t-28 -54.5q-15 -22 -63 -91z" />
    <glyph glyph-name="adjust" unicode="&#xf042;" 
d="M256 408q59 0 108.5 -29t78.5 -79t29 -108.5t-29 -108t-79 -78.5t-108.5 -29t-108 29t-78.5 79t-29 108.5t29 108t79 78.5t108 29zM256 440q-67 0 -124 -33.5t-90.5 -90.5t-33.5 -124t33.5 -124t90.5 -90.5t124 -33.5t124 33.5t90.5 90.5t33.5 124t-33.5 124t-90.5 90.5
t-124 33.5zM224 316v-248q-41 11 -68.5 45t-27.5 79t27.5 79t68.5 45zM256 352q-43 0 -80 -21.5t-58.5 -58.5t-21.5 -80t21.5 -80t58.5 -58.5t80 -21.5v320z" />
    <glyph glyph-name="tint" unicode="&#xf043;" horiz-adv-x="384" 
d="M192 -64q-50 0 -92 24.5t-66.5 66.5t-24.5 92q0 40 18 78q11 23 42 67q29 41 43 65q24 42 37 87q6 21 24.5 28.5t37 -0.5t24.5 -28q14 -46 38 -88q14 -25 43 -66q31 -44 41 -66q18 -37 18 -77q0 -50 -24.5 -92t-66.5 -66.5t-92 -24.5zM41 119q0 -41 20.5 -75.5t55 -55
t75.5 -20.5t75.5 20.5t55 55t20.5 75.5q0 33 -16 66q-10 20 -39 61t-44 68q-25 44 -40 93v0q-2 9 -12 9t-12 -9q-15 -49 -40 -93q-15 -26 -44 -67.5t-39 -61.5q-16 -33 -16 -66zM149 124q-1 4 -5 4t-5 -4q-5 -14 -17 -31q-6 -9 -8 -13q-3 -7 -3 -15q0 -13 9.5 -23t23.5 -10
t23.5 10t9.5 23q0 8 -3 15q-2 4 -8 13q-12 17 -17 31z" />
    <glyph glyph-name="edit" unicode="&#xf044;" horiz-adv-x="576" 
d="M418 133l20 20q3 2 6.5 0.5t3.5 -5.5v-164q0 -20 -14 -34t-34 -14h-352q-20 0 -34 14t-14 34v352q0 20 14 34t34 14h292q4 0 5.5 -3.5t-1.5 -6.5l-19 -20q-2 -2 -5 -2h-272q-7 0 -11.5 -4.5t-4.5 -11.5v-352q0 -7 4.5 -11.5t11.5 -4.5h352q7 0 11.5 4.5t4.5 11.5v144
q0 3 2 5zM564 324l-313 -313l-100 -11q-10 -1 -17 6t-6 17l11 100l313 313q12 12 29.5 12t29.5 -12l53 -53q12 -12 12 -29.5t-12 -29.5zM470 275l-67 67l-233 -233l-8 -76l75 9zM541 361l-52 52q-3 3 -7.5 3t-7.5 -3l-48 -48l67 -67l48 48q3 3 3 7.5t-3 7.5z" />
    <glyph glyph-name="arrows" unicode="&#xf047;" 
d="M338 13l-74 -73q-3 -4 -8 -4t-8 4l-74 73q-3 4 -3 9t3 8l7 7q4 4 9 4t8 -4l41 -41h1v180h-180v-1l41 -41q4 -3 4 -8t-4 -9l-7 -7q-3 -3 -8 -3t-9 3l-73 74q-4 3 -4 8t4 8l73 74q4 3 9 3t8 -3l7 -7q4 -4 4 -9t-4 -8l-41 -41v-1h180v180h-1l-41 -41q-3 -4 -8 -4t-9 4l-7 7
q-3 3 -3 8t3 9l74 73q3 4 8 4t8 -4l74 -73q3 -4 3 -9t-3 -8l-7 -7q-4 -4 -9 -4t-8 4l-41 41h-1v-180h180v1l-41 41q-4 3 -4 8t4 9l7 7q3 3 8 3t9 -3l73 -74q4 -3 4 -8t-4 -8l-73 -74q-4 -3 -9 -3t-8 3l-7 7q-4 4 -4 9t4 8l41 41v1h-180v-180h1l41 41q3 4 8 4t9 -4l7 -7
q3 -3 3 -8t-3 -9z" />
    <glyph glyph-name="step-backward" unicode="&#xf048;" horiz-adv-x="448" 
d="M76 -31h8q5 0 8.5 3.5t3.5 8.5v190l3 -3l233 -191q9 -9 21.5 -8t21.5 10t9 22v384q0 13 -9 22t-21.5 10t-21.5 -7l-232 -193l-4 -3v191q0 5 -3.5 8.5t-8.5 3.5h-8q-5 0 -8.5 -3.5t-3.5 -8.5v-424q0 -5 3.5 -8.5t8.5 -3.5zM117 192l235 193v0v-384z" />
    <glyph glyph-name="fast-backward" unicode="&#xf049;" 
d="M12 1h8q5 0 8.5 3.5t3.5 8.5v158l3 -3l201 -160q9 -8 21.5 -7t21.5 10t9 22v118l172 -143q9 -8 21.5 -7t21.5 10t9 22v320q0 13 -9 22t-21.5 10t-21.5 -7l-172 -144v119q0 13 -9 22t-21.5 10t-21.5 -8l-201 -160l-3 -3v159q0 5 -3.5 8.5t-8.5 3.5h-8q-5 0 -8.5 -3.5
t-3.5 -8.5v-360q0 -5 3.5 -8.5t8.5 -3.5zM293 192v1l187 160v-320zM61 193l195 160v0v-320l-195 159v1z" />
    <glyph glyph-name="backward" unicode="&#xf04a;" 
d="M268 167l192 -159q9 -9 21.5 -8t21.5 10t9 22v320q0 13 -9 22t-21.5 10t-21.5 -7l-192 -161q-12 -10 -12 -25t12 -24zM288 191l192 161v-320zM12 167l192 -159q9 -9 21.5 -8t21.5 10t9 22v320q0 13 -9 22t-21.5 10t-21.5 -7l-192 -161q-12 -10 -12 -25t11 -24h1zM32 191
l192 161v-320z" />
    <glyph glyph-name="play" unicode="&#xf04b;" horiz-adv-x="448" 
d="M424 233l-352 208q-14 9 -31 6.5t-29 -15t-12 -32.5v-416q0 -18 11.5 -31t28.5 -16t32 6l352 208q16 9 21.5 25t0 32t-21.5 25zM408 178l-352 -208q-8 -4 -16 0.5t-8 13.5v416q0 11 8.5 14.5t15.5 -0.5l352 -208q8 -5 8 -14t-8 -14z" />
    <glyph glyph-name="pause" unicode="&#xf04c;" horiz-adv-x="448" 
d="M48 -31h96q20 0 34 14t14 34v352q0 20 -14 34t-34 14h-96q-20 0 -34 -14t-14 -34v-352q0 -20 14 -34t34 -14zM32 369q0 7 4.5 11.5t11.5 4.5h96q7 0 11.5 -4.5t4.5 -11.5v-352q0 -7 -4.5 -11.5t-11.5 -4.5h-96q-7 0 -11.5 4.5t-4.5 11.5v352zM304 -31h96q20 0 34 14
t14 34v352q0 20 -14 34t-34 14h-96q-20 0 -34 -14t-14 -34v-352q0 -20 14 -34t34 -14zM288 369q0 7 4.5 11.5t11.5 4.5h96q7 0 11.5 -4.5t4.5 -11.5v-352q0 -7 -4.5 -11.5t-11.5 -4.5h-96q-7 0 -11.5 4.5t-4.5 11.5v352z" />
    <glyph glyph-name="square" unicode="&#xf04d;" horiz-adv-x="448" 
d="M400 416h-352q-20 0 -34 -14t-14 -34v-352q0 -20 14 -34t34 -14h352q20 0 34 14t14 34v352q0 20 -14 34t-34 14zM416 16q0 -7 -4.5 -11.5t-11.5 -4.5h-352q-7 0 -11.5 4.5t-4.5 11.5v352q0 7 4.5 11.5t11.5 4.5h352q7 0 11.5 -4.5t4.5 -11.5v-352z" />
    <glyph glyph-name="square" unicode="&#xf0c8;" horiz-adv-x="448" 
d="M400 416h-352q-20 0 -34 -14t-14 -34v-352q0 -20 14 -34t34 -14h352q20 0 34 14t14 34v352q0 20 -14 34t-34 14zM416 16q0 -7 -4.5 -11.5t-11.5 -4.5h-352q-7 0 -11.5 4.5t-4.5 11.5v352q0 7 4.5 11.5t11.5 4.5h352q7 0 11.5 -4.5t4.5 -11.5v-352z" />
    <glyph glyph-name="forward" unicode="&#xf04e;" 
d="M245 217l-192 160q-10 8 -22.5 7t-21.5 -10t-9 -22v-320q0 -13 9 -22t21.5 -10t22.5 7l192 161q11 10 11 25t-12 24h1zM224 193l-192 -161v320zM501 217l-192 160q-10 8 -22.5 7t-21.5 -10t-9 -22v-320q0 -13 9 -22t21.5 -10t21.5 7l193 161q11 10 11 25t-12 24h1z
M480 193l-192 -161v320z" />
    <glyph glyph-name="fast-forward" unicode="&#xf050;" 
d="M500 385h-8q-5 0 -8.5 -3.5t-3.5 -8.5v-158l-3 3l-200 160q-10 8 -22.5 7t-21.5 -10t-9 -22v-118l-171 143q-10 8 -22.5 7t-21.5 -10t-9 -22v-320q0 -13 9 -22t21.5 -10t22.5 7l171 144v-119q0 -13 9 -22t21.5 -10t21.5 7l201 161l3 3v-159q0 -5 3.5 -8.5t8.5 -3.5h8
q5 0 8.5 3.5t3.5 8.5v360q0 5 -3.5 8.5t-8.5 3.5zM220 194h-1l-187 -161v320zM451 193l-195 -160v0v320l195 -159v-1z" />
    <glyph glyph-name="step-forward" unicode="&#xf051;" horiz-adv-x="448" 
d="M372 417h-8q-5 0 -8.5 -3.5t-3.5 -8.5v-190l-4 3l-231 192q-10 8 -22.5 7t-21.5 -10t-9 -22v-384q0 -13 9 -22t21.5 -10t22.5 7l232 193l3 3v-191q0 -5 3.5 -8.5t8.5 -3.5h8q5 0 8.5 3.5t3.5 8.5v424q0 5 -3.5 8.5t-8.5 3.5zM332 194l-236 -193v0v384z" />
    <glyph glyph-name="eject" unicode="&#xf052;" horiz-adv-x="448" 
d="M435 208l-176 192q-14 16 -35 16t-35 -16l-176 -192q-14 -14 -13 -33.5t14.5 -33t33.5 -13.5h352q20 0 33.5 13.5t14.5 33t-13 33.5zM400 160h-352q-10 0 -14.5 9.5t2.5 17.5l176 192q5 5 12 5t12 -5l176 -192q7 -8 2.5 -17.5t-14.5 -9.5zM448 48v-32q0 -20 -14 -34
t-34 -14h-352q-20 0 -34 14t-14 34v32q0 20 14 34t34 14h352q20 0 34 -14t14 -34zM400 64h-352q-7 0 -11.5 -4.5t-4.5 -11.5v-32q0 -7 4.5 -11.5t11.5 -4.5h352q7 0 11.5 4.5t4.5 11.5v32q0 7 -4.5 11.5t-11.5 4.5z" />
    <glyph glyph-name="chevron-left" unicode="&#xf053;" horiz-adv-x="256" 
d="M238 -28l8 8q3 3 3 8t-3 9l-196 195l196 195q3 4 3 9t-3 8l-8 8q-3 3 -8 3t-8 -3l-212 -212q-3 -3 -3 -8t3 -8l212 -212q3 -3 8 -3t8 3z" />
    <glyph glyph-name="chevron-right" unicode="&#xf054;" horiz-adv-x="256" 
d="M18 412l-8 -8q-3 -3 -3 -8t3 -9l196 -195l-196 -195q-3 -4 -3 -9t3 -8l8 -8q3 -3 8 -3t8 3l212 212q3 3 3 8t-3 8l-212 212q-3 3 -8 3t-8 -3z" />
    <glyph glyph-name="plus-circle" unicode="&#xf055;" 
d="M384 198v-12q0 -5 -3.5 -8.5t-8.5 -3.5h-98v-98q0 -5 -3.5 -8.5t-8.5 -3.5h-12q-5 0 -8.5 3.5t-3.5 8.5v98h-98q-5 0 -8.5 3.5t-3.5 8.5v12q0 5 3.5 8.5t8.5 3.5h98v98q0 5 3.5 8.5t8.5 3.5h12q5 0 8.5 -3.5t3.5 -8.5v-98h98q5 0 8.5 -3.5t3.5 -8.5zM504 192
q0 -67 -33.5 -124t-90.5 -90.5t-124 -33.5t-124 33.5t-90.5 90.5t-33.5 124t33.5 124t90.5 90.5t124 33.5t124 -33.5t90.5 -90.5t33.5 -124zM472 192q0 59 -29 108.5t-79 78.5t-108.5 29t-108 -29t-78.5 -79t-29 -108.5t29 -108t79 -78.5t108.5 -29t108 29t78.5 79t29 108z
" />
    <glyph glyph-name="minus-circle" unicode="&#xf056;" 
d="M140 174q-5 0 -8.5 3.5t-3.5 8.5v12q0 5 3.5 8.5t8.5 3.5h232q5 0 8.5 -3.5t3.5 -8.5v-12q0 -5 -3.5 -8.5t-8.5 -3.5h-232zM504 192q0 -67 -33.5 -124t-90.5 -90.5t-124 -33.5t-124 33.5t-90.5 90.5t-33.5 124t33.5 124t90.5 90.5t124 33.5t124 -33.5t90.5 -90.5
t33.5 -124zM472 192q0 59 -29 108.5t-79 78.5t-108.5 29t-108 -29t-78.5 -79t-29 -108.5t29 -108t79 -78.5t108.5 -29t108 29t78.5 79t29 108z" />
    <glyph glyph-name="times-circle" unicode="&#xf057;" 
d="M256 440q-67 0 -124 -33.5t-90.5 -90.5t-33.5 -124t33.5 -124t90.5 -90.5t124 -33.5t124 33.5t90.5 90.5t33.5 124t-33.5 124t-90.5 90.5t-124 33.5zM256 -24q-58 0 -108 29t-79 78.5t-29 108t29 108.5t78.5 79t108 29t108.5 -29t79 -78.5t29 -108t-29 -108.5t-78.5 -79
t-108.5 -29zM351 261l-69 -69l69 -69q3 -4 3 -9t-3 -8l-9 -9q-3 -3 -8 -3t-9 3l-69 70l-69 -70q-4 -3 -9 -3t-8 3l-9 9q-3 3 -3 8t3 9l70 69l-70 69q-3 4 -3 9t3 8l9 9q3 3 8 3t9 -3l69 -69l69 69q4 3 9 3t8 -3l9 -9q3 -3 3 -8t-3 -9z" />
    <glyph glyph-name="check-circle" unicode="&#xf058;" 
d="M256 440q-67 0 -124 -33.5t-90.5 -90.5t-33.5 -124t33.5 -124t90.5 -90.5t124 -33.5t124 33.5t90.5 90.5t33.5 124t-33.5 124t-90.5 90.5t-124 33.5zM256 -24q-58 0 -108 29t-79 78.5t-29 108t29 108.5t78.5 79t108 29t108.5 -29t79 -78.5t29 -108t-29 -108.5t-78.5 -79
t-108.5 -29zM398 251l-181 -179q-3 -4 -8 -4t-9 4l-86 87q-3 3 -3 8t3 9l9 8q3 3 8 3t9 -3l69 -70l163 163q4 3 9 3t8 -4l9 -8q3 -4 3 -9t-3 -8z" />
    <glyph glyph-name="question-circle" unicode="&#xf059;" 
d="M256 108q-12 0 -20 -8t-8 -20t8 -20t20 -8t20 8t8 20t-8 20t-20 8zM264 132h-16q-5 0 -8.5 3.5t-3.5 8.5v0q0 26 14 44q9 10 31 24q17 11 22 17q10 10 10 23q0 16 -14 27q-15 13 -43 13q-21 0 -34.5 -7t-25.5 -22q-2 -3 -7 -4t-9 2l-13 9q-4 3 -5 8t2 9q18 22 37 33
q23 12 55 12q41 0 69 -22t28 -58q0 -25 -14 -42q-9 -11 -31 -25q-17 -11 -23 -17q-9 -11 -9 -24v0q0 -5 -3.5 -8.5t-8.5 -3.5zM256 408q58 0 108 -29t79 -78.5t29 -108.5t-29 -108.5t-78.5 -78.5t-108.5 -29t-108.5 29t-78.5 78.5t-29 108.5t29 108.5t78.5 78.5t108.5 29z
M256 440q-67 0 -124 -33.5t-90.5 -90.5t-33.5 -124t33.5 -124t90.5 -90.5t124 -33.5t124 33.5t90.5 90.5t33.5 124t-33.5 124t-90.5 90.5t-124 33.5z" />
    <glyph glyph-name="info-circle" unicode="&#xf05a;" 
d="M256 408q58 0 108 -29t79 -78.5t29 -108.5t-29 -108.5t-78.5 -78.5t-108.5 -29t-108.5 29t-78.5 78.5t-29 108.5t29 108.5t78.5 78.5t108.5 29zM256 440q-67 0 -124 -33.5t-90.5 -90.5t-33.5 -124t33.5 -124t90.5 -90.5t124 -33.5t124 33.5t90.5 90.5t33.5 124t-33.5 124
t-90.5 90.5t-124 33.5zM220 96h12v120h-12q-5 0 -8.5 3.5t-3.5 8.5v8q0 5 3.5 8.5t8.5 3.5h48q5 0 8.5 -3.5t3.5 -8.5v-140h12q5 0 8.5 -3.5t3.5 -8.5v-8q0 -5 -3.5 -8.5t-8.5 -3.5h-72q-5 0 -8.5 3.5t-3.5 8.5v8q0 5 3.5 8.5t8.5 3.5zM256 336q-13 0 -22.5 -9.5t-9.5 -22.5
t9.5 -22.5t22.5 -9.5t22.5 9.5t9.5 22.5t-9.5 22.5t-22.5 9.5z" />
    <glyph glyph-name="crosshairs" unicode="&#xf05b;" 
d="M506 208h-35q-3 53 -30.5 97t-71.5 71.5t-97 30.5v35q0 2 -2 4t-4 2h-20q-2 0 -4 -2t-2 -4v-35q-53 -3 -97 -30.5t-71.5 -71.5t-30.5 -97h-35q-2 0 -4 -2t-2 -4v-20q0 -2 2 -4t4 -2h35q3 -53 30.5 -97t71.5 -71.5t97 -30.5v-35q0 -2 2 -4t4 -2h20q2 0 4 2t2 4v35
q53 3 97 30.5t71.5 71.5t30.5 97h35q2 0 4 2t2 4v20q0 2 -2 4t-4 2zM272 9v65q0 2 -2 4t-4 2h-20q-2 0 -4 -2t-2 -4v-65q-44 3 -81 26t-60 60t-26 81h65q2 0 4 2t2 4v20q0 2 -2 4t-4 2h-65q3 44 26 81t60 60t81 26v-65q0 -2 2 -4t4 -2h20q2 0 4 2t2 4v65q44 -3 81 -26
t60 -60t26 -81h-65q-2 0 -4 -2t-2 -4v-20q0 -2 2 -4t4 -2h65q-3 -44 -26 -81t-60 -60t-81 -26zM280 192q0 -10 -7 -17t-17 -7t-17 7t-7 17t7 17t17 7t17 -7t7 -17z" />
    <glyph glyph-name="ban" unicode="&#xf05e;" 
d="M256 440q-67 0 -124 -33.5t-90.5 -90.5t-33.5 -124t33.5 -124t90.5 -90.5t124 -33.5t124 33.5t90.5 90.5t33.5 124t-33.5 124t-90.5 90.5t-124 33.5zM103 39q-39 40 -54.5 92.5t-4 106t47.5 95.5l305 -305q-42 -36 -95.5 -47.5t-106 4t-92.5 54.5zM420 51l-305 305
q42 36 95.5 47.5t106 -4t92 -55t55 -92t4 -106t-47.5 -95.5z" />
    <glyph glyph-name="arrow-left" unicode="&#xf060;" horiz-adv-x="448" 
d="M232 -28l7 8q3 3 3 8t-3 9l-179 178h376q5 0 8.5 3.5t3.5 8.5v10q0 5 -3.5 8.5t-8.5 3.5h-376l179 178q3 4 3 9t-3 8l-7 8q-4 3 -9 3t-8 -3l-211 -212q-4 -3 -4 -8t4 -8l211 -212q3 -3 8 -3t9 3z" />
    <glyph glyph-name="arrow-right" unicode="&#xf061;" horiz-adv-x="448" 
d="M216 412l-7 -8q-3 -3 -3 -8t3 -9l179 -178h-376q-5 0 -8.5 -3.5t-3.5 -8.5v-10q0 -5 3.5 -8.5t8.5 -3.5h376l-179 -178q-3 -4 -3 -9t3 -8l7 -8q4 -3 9 -3t8 3l211 212q4 3 4 8t-4 8l-211 212q-3 3 -8 3t-9 -3z" />
    <glyph glyph-name="arrow-up" unicode="&#xf062;" horiz-adv-x="448" 
d="M4 184l8 -7q3 -3 8 -3t9 3l178 179v-376q0 -5 3.5 -8.5t8.5 -3.5h10q5 0 8.5 3.5t3.5 8.5v376l178 -179q4 -3 9 -3t8 3l8 7q3 4 3 9t-3 8l-212 211q-3 4 -8 4t-8 -4l-212 -211q-3 -3 -3 -8t3 -9z" />
    <glyph glyph-name="arrow-down" unicode="&#xf063;" horiz-adv-x="448" 
d="M444 200l-8 7q-3 3 -8 3t-9 -3l-178 -179v376q0 5 -3.5 8.5t-8.5 3.5h-10q-5 0 -8.5 -3.5t-3.5 -8.5v-376l-178 179q-4 3 -9 3t-8 -3l-8 -7q-3 -4 -3 -9t3 -9l211 -211q4 -3 9 -3t8 3l211 212q4 3 4 8t-4 8z" />
    <glyph glyph-name="share" unicode="&#xf064;" horiz-adv-x="576" 
d="M565 252l-176 184q-12 12 -28.5 12t-28.5 -11.5t-12 -28.5v-88q-95 -1 -156 -16q-78 -18 -118 -59q-46 -47 -46 -128q0 -63 32 -114q22 -35 57 -61q12 -8 25.5 -5t21 14.5t3.5 25.5q-19 65 -5 97t62 44q38 9 124 10v-88q0 -17 12 -28.5t28.5 -11.5t28.5 12l176 184
q11 12 11 28t-11 28zM542 218l-176 -184q-4 -3 -9 -1t-5 7v120q-103 0 -151 -9q-67 -13 -91 -52q-26 -44 -2 -131q-32 24 -51 57q-25 41 -25 92q0 75 48 115q41 35 119 47q55 9 153 9v120q0 5 5 7t9 -1l176 -184q2 -3 2 -6t-2 -6z" />
    <glyph glyph-name="expand" unicode="&#xf065;" horiz-adv-x="448" 
d="M0 268v124q0 10 7 17t17 7h124q5 0 8.5 -3.5t3.5 -8.5v-8q0 -5 -3.5 -8.5t-8.5 -3.5h-116v-116q0 -5 -3.5 -8.5t-8.5 -3.5h-8q-5 0 -8.5 3.5t-3.5 8.5zM300 416h124q10 0 17 -7t7 -17v-124q0 -5 -3.5 -8.5t-8.5 -3.5h-8q-5 0 -8.5 3.5t-3.5 8.5v116h-116q-5 0 -8.5 3.5
t-3.5 8.5v8q0 5 3.5 8.5t8.5 3.5zM448 116v-124q0 -10 -7 -17t-17 -7h-124q-5 0 -8.5 3.5t-3.5 8.5v8q0 5 3.5 8.5t8.5 3.5h116v116q0 5 3.5 8.5t8.5 3.5h8q5 0 8.5 -3.5t3.5 -8.5zM148 -32h-124q-10 0 -17 7t-7 17v124q0 5 3.5 8.5t8.5 3.5h8q5 0 8.5 -3.5t3.5 -8.5v-116
h116q5 0 8.5 -3.5t3.5 -8.5v-8q0 -5 -3.5 -8.5t-8.5 -3.5z" />
    <glyph glyph-name="compress" unicode="&#xf066;" horiz-adv-x="448" 
d="M436 256h-124q-10 0 -17 7t-7 17v124q0 5 3.5 8.5t8.5 3.5h8q5 0 8.5 -3.5t3.5 -8.5v-116h116q5 0 8.5 -3.5t3.5 -8.5v-8q0 -5 -3.5 -8.5t-8.5 -3.5zM160 280v124q0 5 -3.5 8.5t-8.5 3.5h-8q-5 0 -8.5 -3.5t-3.5 -8.5v-116h-116q-5 0 -8.5 -3.5t-3.5 -8.5v-8
q0 -5 3.5 -8.5t8.5 -3.5h124q10 0 17 7t7 17zM160 -20v124q0 10 -7 17t-17 7h-124q-5 0 -8.5 -3.5t-3.5 -8.5v-8q0 -5 3.5 -8.5t8.5 -3.5h116v-116q0 -5 3.5 -8.5t8.5 -3.5h8q5 0 8.5 3.5t3.5 8.5zM320 -20v116h116q5 0 8.5 3.5t3.5 8.5v8q0 5 -3.5 8.5t-8.5 3.5h-124
q-10 0 -17 -7t-7 -17v-124q0 -5 3.5 -8.5t8.5 -3.5h8q5 0 8.5 3.5t3.5 8.5z" />
    <glyph glyph-name="plus" unicode="&#xf067;" horiz-adv-x="448" 
d="M436 210h-194v194q0 5 -3.5 8.5t-8.5 3.5h-12q-5 0 -8.5 -3.5t-3.5 -8.5v-194h-194q-5 0 -8.5 -3.5t-3.5 -8.5v-12q0 -5 3.5 -8.5t8.5 -3.5h194v-194q0 -5 3.5 -8.5t8.5 -3.5h12q5 0 8.5 3.5t3.5 8.5v194h194q5 0 8.5 3.5t3.5 8.5v12q0 5 -3.5 8.5t-8.5 3.5z" />
    <glyph glyph-name="minus" unicode="&#xf068;" horiz-adv-x="448" 
d="M436 174q5 0 8.5 3.5t3.5 8.5v12q0 5 -3.5 8.5t-8.5 3.5h-424q-5 0 -8.5 -3.5t-3.5 -8.5v-12q0 -5 3.5 -8.5t8.5 -3.5h424z" />
    <glyph glyph-name="asterisk" unicode="&#xf069;" 
d="M475 84l-187 108l187 108q5 3 6 7.5t-1 9.5l-4 6q-3 5 -7.5 6t-9.5 -1l-187 -108v216q0 5 -3.5 8.5t-8.5 3.5h-8q-5 0 -8.5 -3.5t-3.5 -8.5v-216l-187 108q-5 2 -9.5 1t-7.5 -6l-4 -6q-2 -5 -1 -9.5t6 -7.5l187 -108l-187 -108q-5 -3 -6 -7.5t1 -9.5l4 -6q3 -5 7.5 -6
t9.5 1l187 108v-216q0 -5 3.5 -8.5t8.5 -3.5h8q5 0 8.5 3.5t3.5 8.5v216l187 -108q5 -2 9.5 -1t7.5 6l4 6q2 5 1 9.5t-6 7.5z" />
    <glyph glyph-name="exclamation-circle" unicode="&#xf06a;" 
d="M256 408q58 0 108 -29t79 -78.5t29 -108.5t-29 -108.5t-78.5 -78.5t-108.5 -29t-108.5 29t-78.5 78.5t-29 108.5t29 108.5t78.5 78.5t108.5 29zM256 440q-67 0 -124 -33.5t-90.5 -90.5t-33.5 -124t33.5 -124t90.5 -90.5t124 -33.5t124 33.5t90.5 90.5t33.5 124t-33.5 124
t-90.5 90.5t-124 33.5zM245 320h22q6 0 9.5 -3.5t2.5 -8.5l-7 -168q0 -5 -3.5 -8.5t-8.5 -3.5h-8q-5 0 -8.5 3.5t-3.5 7.5l-7 169q-1 5 2.5 8.5t9.5 3.5zM256 108q-12 0 -20 -8t-8 -20t8 -20t20 -8t20 8t8 20t-8 20t-20 8z" />
    <glyph glyph-name="gift" unicode="&#xf06b;" 
d="M488 288h-72q16 21 16 48q0 33 -23.5 56.5t-57 23.5t-57.5 -23q-20 -19 -37 -57q-32 80 -97 80q-33 0 -56.5 -23.5t-23.5 -56.5q0 -27 16 -48h-72q-10 0 -17 -7t-7 -17v-112q0 -10 7 -17t17 -7h8v-112q0 -20 14 -34t34 -14h352q20 0 34 14t14 34v112h8q10 0 17 7t7 17
v112q0 10 -7 17t-17 7zM352 384q20 0 34 -14t14 -34t-14 -34t-34 -14h-80q16 59 40 81q17 15 40 15zM112 336q0 20 14 34t34.5 14t35.5 -12q28 -22 44 -84h-80q-20 0 -34 14t-14 34zM32 160v96h160v-96h-160zM80 0q-7 0 -11.5 4.5t-4.5 11.5v112h128v-128h-112zM224 0v256
h64v-256h-64zM448 16q0 -7 -4.5 -11.5t-11.5 -4.5h-112v128h128v-112zM480 160h-160v96h160v-96z" />
    <glyph glyph-name="leaf" unicode="&#xf06c;" horiz-adv-x="576" 
d="M501 384q15 0 26 -22q8 -17 13 -44q4 -22 4 -37q0 -80 -48 -143q-42 -55 -111 -87q-64 -30 -127 -30q-32 0 -67 9q-25 7 -48 17l-19 9q-4 0 -10 -7q-3 -4 -10 -15q-11 -17 -17 -23q-10 -11 -19 -11q-17 0 -27 12q-9 10 -9 21t11 23q7 7 23 20q12 8 16 12q7 7 7 11l-3 6
q-4 8 -6 17q-2 14 -2 28q-1 62 46 110q41 44 107 64q16 5 43 8q16 1 52 2q52 1 74 4q38 5 54 19l8 8q10 10 16 13q10 6 23 6zM501 416q-21 0 -38 -10q-10 -5 -24 -19l-7 -6q-9 -8 -39 -12q-18 -2 -63 -3q-40 -1 -59 -3q-31 -2 -50 -8q-76 -24 -124 -77q-52 -56 -52 -128
q0 -24 7 -45l-5 -4q-22 -17 -31 -28q-16 -19 -16 -40q0 -25 19.5 -45t48.5 -20q20 0 38 16q10 10 25 33q64 -28 127 -28q69 0 140 33q78 35 124 97q54 71 54 162q0 49 -17 88q-21 47 -58 47zM159 114q42 57 97 82.5t130 19.5q7 0 12 4t5.5 11t-4 12t-10.5 5q-83 6 -146 -22
t-110 -93q-4 -5 -3 -11.5t6.5 -10.5t12 -3t10.5 6z" />
    <glyph glyph-name="fire" unicode="&#xf06d;" horiz-adv-x="384" 
d="M216 424q0 11 -8.5 18t-19 6t-16.5 -11q-31 -48 -36 -94q-3 -37 11 -75q9 -21 31 -57q11 -19 15 -28q7 -13 7 -23q0 -17 -11.5 -28.5t-28.5 -11.5t-28.5 11.5t-11.5 28.5v106q0 14 -13 21t-25 -1q-38 -27 -60 -69t-22 -89q0 -52 26 -96t70 -70t96 -26t96 26t70 70t26 96
q0 44 -15 82q-13 30 -38 59q-15 17 -47 47q-35 32 -47 49q-21 29 -21 59zM192 -32q-43 0 -80 21.5t-58.5 58.5t-21.5 80q0 36 15 71t41 57v-96q0 -30 21 -51t51 -21t51 21t21 51q0 15 -9 34q-5 11 -19 35q-19 32 -27 50q-12 30 -12 58q1 35 22 71q6 -36 30 -68
q14 -19 50 -53q28 -26 41 -41q21 -25 31 -50q13 -31 13 -68q0 -43 -21.5 -80t-58.5 -58.5t-80 -21.5z" />
    <glyph glyph-name="eye" unicode="&#xf06e;" horiz-adv-x="576" 
d="M569 216q-43 73 -117 116q-75 44 -164 44t-164 -44q-74 -43 -117 -116q-7 -11 -7 -24t7 -24q43 -73 117 -116q75 -44 164 -44t164 44q74 43 117 116q7 11 7 24t-7 24zM416 220q0 -34 -17 -62.5t-46.5 -45t-64.5 -16.5t-64.5 16.5t-46.5 45t-17 62.5t17 62.5t46.5 45
t64.5 16.5t64.5 -16.5t46.5 -45t17 -62.5zM542 184q-39 -67 -107 -105.5t-147 -38.5t-147 39t-107 105q-5 8 0 16q22 37 55 67t73 49q-34 -42 -34 -96q0 -42 21.5 -78t58 -57t80.5 -21t80.5 21t58 57t21.5 78q0 54 -34 96q40 -19 73 -48.5t55 -67.5q5 -8 0 -16zM224 224
q0 16 8 30v0q0 -11 7.5 -18.5t18.5 -7.5t18.5 7.5t7.5 18.5t-7.5 18.5t-18.5 7.5v0q14 8 30 8q27 0 45.5 -18.5t18.5 -45.5t-18.5 -45.5t-45.5 -18.5t-45.5 18.5t-18.5 45.5z" />
    <glyph glyph-name="eye-slash" unicode="&#xf070;" horiz-adv-x="576" 
d="M321 42l22 -29q-27 -5 -55 -5q-89 0 -164 44q-74 43 -117 116q-7 11 -7 24t7 24q39 67 105 109l19 -26q-61 -38 -97 -99q-5 -8 0 -16q39 -67 107 -105.5t147 -38.5q17 0 33 2zM142 284q-14 -31 -14 -64q0 -42 21.5 -78t58 -57t80.5 -21q8 0 16 1l-23 31q-33 2 -61 19
t-44 44.5t-16 60.5q0 17 5 33zM569 168q-25 -43 -62.5 -76.5t-83.5 -54.5l57 -77q3 -4 2.5 -9t-4.5 -8l-7 -5q-4 -3 -9 -2t-8 5l-358 483q-3 4 -2.5 9t4.5 8l7 5q4 3 9 2t8 -5l62 -84q50 17 104 17q89 0 164 -44q74 -43 117 -116q7 -11 7 -24t-7 -24zM416 220q0 34 -17 62.5
t-46.5 45t-64.5 16.5q-42 0 -75 -24l35 -46q15 12 34 13.5t36 -7.5v0q-11 0 -18.5 -7.5t-7.5 -18.5t7.5 -18.5t18.5 -7.5t18.5 7.5t7.5 18.5v0q12 -21 6 -45t-26 -38l38 -52q25 17 39.5 43.5t14.5 57.5zM542 200q-22 37 -55 67t-73 49q27 -34 32.5 -76t-11.5 -81.5
t-54 -65.5l23 -30q43 19 78.5 49.5t59.5 71.5q5 8 0 16z" />
    <glyph glyph-name="exclamation-triangle" unicode="&#xf071;" horiz-adv-x="576" 
d="M570 8q8 -16 5 -32.5t-16 -28t-31 -11.5h-480q-18 0 -31 11.5t-16 28t5 32.5l240 416q9 16 25.5 21.5t33 0t25.5 -21.5zM542 -8l-240 416q-5 8 -14 8t-14 -8l-240 -416q-4 -8 0.5 -16t13.5 -8h480q9 0 13.5 8t0.5 16zM288 76q-12 0 -20 -8t-8 -20t8 -20t20 -8t20 8t8 20
t-8 20t-20 8zM277 288h22q6 0 9.5 -3.5t2.5 -8.5l-7 -168q0 -5 -3.5 -8.5t-8.5 -3.5h-8q-5 0 -8.5 3.5t-3.5 7.5l-7 169q-1 5 2.5 8.5t9.5 3.5zM288 76q-12 0 -20 -8t-8 -20t8 -20t20 -8t20 8t8 20t-8 20t-20 8z" />
    <glyph glyph-name="plane" unicode="&#xf072;" horiz-adv-x="576" 
d="M463 256h-98l-93 179q-8 13 -24 13h-54q-13 0 -21 -10.5t-5 -22.5l27 -159h-76l-28 51q-8 14 -24 13h-40q-13 1 -21 -9t-5 -23l19 -96l-19 -96q-3 -13 5 -23t21 -9h40q16 0 24 13l28 51h76l-27 -159q-3 -12 5 -22.5t21 -10.5h54q16 0 24 13l93 179h98q43 0 74 14
q39 18 39 50t-39 50q-31 14 -74 14zM463 160h-117l-100 -192h-46l34 192h-134l-36 -64h-31l19 96l-19 97h31l36 -65h134l-34 192h46l100 -192h117q35 0 58 -9.5t23 -22.5t-23 -22.5t-59 -9.5h1z" />
    <glyph glyph-name="calendar-alt" unicode="&#xf073;" horiz-adv-x="448" 
d="M400 384h-48v52q0 5 -3.5 8.5t-8.5 3.5h-8q-5 0 -8.5 -3.5t-3.5 -8.5v-52h-192v52q0 5 -3.5 8.5t-8.5 3.5h-8q-5 0 -8.5 -3.5t-3.5 -8.5v-52h-48q-20 0 -34 -14t-14 -34v-352q0 -20 14 -34t34 -14h352q20 0 34 14t14 34v352q0 20 -14 34t-34 14zM48 352h352
q7 0 11.5 -4.5t4.5 -11.5v-48h-384v48q0 7 4.5 11.5t11.5 4.5zM400 -32h-352q-7 0 -11.5 4.5t-4.5 11.5v272h384v-272q0 -7 -4.5 -11.5t-11.5 -4.5zM148 128h-40q-5 0 -8.5 3.5t-3.5 8.5v40q0 5 3.5 8.5t8.5 3.5h40q5 0 8.5 -3.5t3.5 -8.5v-40q0 -5 -3.5 -8.5t-8.5 -3.5z
M244 128h-40q-5 0 -8.5 3.5t-3.5 8.5v40q0 5 3.5 8.5t8.5 3.5h40q5 0 8.5 -3.5t3.5 -8.5v-40q0 -5 -3.5 -8.5t-8.5 -3.5zM340 128h-40q-5 0 -8.5 3.5t-3.5 8.5v40q0 5 3.5 8.5t8.5 3.5h40q5 0 8.5 -3.5t3.5 -8.5v-40q0 -5 -3.5 -8.5t-8.5 -3.5zM244 32h-40q-5 0 -8.5 3.5
t-3.5 8.5v40q0 5 3.5 8.5t8.5 3.5h40q5 0 8.5 -3.5t3.5 -8.5v-40q0 -5 -3.5 -8.5t-8.5 -3.5zM148 32h-40q-5 0 -8.5 3.5t-3.5 8.5v40q0 5 3.5 8.5t8.5 3.5h40q5 0 8.5 -3.5t3.5 -8.5v-40q0 -5 -3.5 -8.5t-8.5 -3.5zM340 32h-40q-5 0 -8.5 3.5t-3.5 8.5v40q0 5 3.5 8.5
t8.5 3.5h40q5 0 8.5 -3.5t3.5 -8.5v-40q0 -5 -3.5 -8.5t-8.5 -3.5z" />
    <glyph glyph-name="random" unicode="&#xf074;" 
d="M0 320v8q0 5 3.5 8.5t8.5 3.5h106q5 0 9 -4l89 -97l-21 -23l-86 92h-97q-5 0 -8.5 3.5t-3.5 8.5zM503 41l-64 -64q-10 -9 -23 -9t-22.5 9t-9.5 23v44h-26q-5 0 -8 4l-90 97l22 24l85 -93h17v52q0 14 9.5 23t22.5 9t23 -9l64 -64q9 -10 9 -23t-9 -23zM483 67l-64 64
q-2 2 -4.5 1t-2.5 -4v-128q0 -3 2.5 -4t4.5 1l64 64q3 3 0 6zM503 297l-64 -64q-10 -9 -23 -9t-22.5 9t-9.5 23v52h-17l-240 -260q-4 -4 -9 -4h-106q-5 0 -8.5 3.5t-3.5 8.5v8q0 5 3.5 8.5t8.5 3.5h97l240 260q4 4 9 4h26v44q0 14 9.5 23t22.5 9t23 -9l64 -64q9 -10 9 -23
t-9 -23zM483 323l-64 64q-2 2 -4.5 1t-2.5 -4v-128q0 -3 2.5 -4t4.5 1l64 64q3 3 0 6z" />
    <glyph glyph-name="comment" unicode="&#xf075;" horiz-adv-x="576" 
d="M288 416q-78 0 -144 -28t-105 -75.5t-39 -104.5q0 -37 17 -71t49 -61q-7 -22 -19 -36q-8 -8 -26 -21l-8 -5q-13 -10 -13 -21t9 -18.5t22 -6.5q89 7 159 44q47 -12 98 -12q78 0 144 28t105 75.5t39 104.5t-38.5 104.5t-105 75.5t-144.5 28zM288 32q-54 0 -102 15
q-77 -45 -154 -55q35 23 50 45q14 20 19 51q-31 24 -49 53q-20 32 -20 67q0 47 34.5 87.5t93.5 64.5t128 24t128 -24t93.5 -64.5t34.5 -87.5t-34.5 -87.5t-93.5 -64.5t-128 -24z" />
    <glyph glyph-name="magnet" unicode="&#xf076;" 
d="M372 416q-15 0 -25.5 -10.5t-10.5 -25.5v-172q0 -45 -25 -72q-22 -24 -54.5 -24t-55.5 24q-25 27 -25 72v172q0 15 -10.5 25.5t-25.5 10.5h-104q-15 0 -25.5 -10.5t-10.5 -25.5l1 -92h-1v-32h1q0 -45 -1 -65q0 -72 40 -131q36 -54 97 -86q58 -30 119.5 -30t120.5 30
q60 32 96 86q39 59 39 131v189q0 15 -10.5 25.5t-25.5 10.5h-104zM37 380h103v-92h-103v92zM476 190q0 -46 -19 -86q-18 -37 -50.5 -65.5t-71.5 -43.5t-78 -15t-78.5 15t-72 43.5t-51.5 65.5q-19 40 -19 86q1 21 1 66h103v-48q0 -60 35 -97q16 -17 37 -26t44 -9t44 9t37 26
q35 37 35 97v48h103q0 -45 1 -66zM372 288v92h104l-1 -92h-103z" />
    <glyph glyph-name="chevron-up" unicode="&#xf077;" horiz-adv-x="448" 
d="M4 82l8 -8q3 -3 8 -3t9 3l195 196l195 -196q4 -3 9 -3t8 3l8 8q3 3 3 8t-3 8l-212 212q-3 3 -8 3t-8 -3l-212 -212q-3 -3 -3 -8t3 -8z" />
    <glyph glyph-name="chevron-down" unicode="&#xf078;" horiz-adv-x="448" 
d="M444 285l-8 8q-3 3 -8 3t-9 -3l-195 -196l-195 196q-4 3 -9 3t-8 -3l-8 -8q-3 -3 -3 -8t3 -9l211 -211q4 -3 9 -3t8 3l211 211q4 4 4 9t-4 8h1z" />
    <glyph glyph-name="retweet" unicode="&#xf079;" horiz-adv-x="640" 
d="M635 84l-99 -98q-3 -4 -8 -4t-8 4l-99 98q-3 4 -3 9t3 8l6 6q3 3 8 3t9 -3l68 -68v281h-252q-5 0 -8 4l-8 8q-6 5 -3 12.5t11 7.5h268q10 0 17 -7t7 -17v-289l68 68q4 3 9 3t8 -3l6 -6q3 -3 3 -8t-3 -9zM388 60q-3 4 -8 4h-252v281l68 -68q4 -3 9 -3t8 3l6 6q3 3 3 8
t-3 9l-99 98q-3 4 -8 4t-8 -4l-99 -98q-3 -4 -3 -9t3 -8l6 -6q3 -3 8 -3t9 3l68 68v-289q0 -10 7 -17t17 -7h268q8 0 11 7.5t-3 12.5z" />
    <glyph glyph-name="shopping-cart" unicode="&#xf07a;" horiz-adv-x="576" 
d="M552 384h-423l-8 44q-2 9 -8.5 14.5t-15.5 5.5h-85q-5 0 -8.5 -3.5t-3.5 -8.5v-8q0 -5 3.5 -8.5t8.5 -3.5h79l70 -373q-17 -18 -17 -44t18.5 -44.5t45.5 -18.5t45.5 18.5t18.5 45.5q0 17 -9 32h146q-9 -15 -9 -32q0 -27 18.5 -45.5t45.5 -18.5t45.5 18.5t18.5 45.5
t-19 46q-2 8 -8.5 13t-15.5 5h-296l-12 64h332q8 0 14.5 5.5t8.5 13.5l43 208q3 11 -4.5 20t-18.5 9zM240 0q0 -13 -9.5 -22.5t-22.5 -9.5t-22.5 9.5t-9.5 22.5t9.5 22.5t22.5 9.5t22.5 -9.5t9.5 -22.5zM464 -32q-13 0 -22.5 9.5t-9.5 22.5t9.5 22.5t22.5 9.5t22.5 -9.5
t9.5 -22.5t-9.5 -22.5t-22.5 -9.5zM502 160h-331l-36 192h407z" />
    <glyph glyph-name="folder" unicode="&#xf07b;" 
d="M464 320h-192l-64 64h-160q-20 0 -34 -14t-14 -34v-288q0 -20 14 -34t34 -14h416q20 0 34 14t14 34v224q0 20 -14 34t-34 14zM480 48q0 -7 -4.5 -11.5t-11.5 -4.5h-416q-7 0 -11.5 4.5t-4.5 11.5v288q0 7 4.5 11.5t11.5 4.5h147l64 -64h205q7 0 11.5 -4.5t4.5 -11.5v-224
z" />
    <glyph glyph-name="folder-open" unicode="&#xf07c;" horiz-adv-x="576" 
d="M528 224h-48v48q0 20 -14 34t-34 14h-160l-64 64h-160q-20 0 -34 -14t-14 -34v-288q0 -20 14 -34t34 -14h385q21 0 39.5 10.5t29.5 28.5l67 112q9 16 6 33t-16 28.5t-31 11.5zM48 352h147l64 -64h173q7 0 11.5 -4.5t4.5 -11.5v-48h-277q-21 0 -39.5 -10.5t-28.5 -28.5
l-71 -117v268q0 7 4.5 11.5t11.5 4.5zM542 168l-68 -113q-6 -11 -17 -17t-24 -6h-388l82 137q6 11 17 17t24 6h360q9 0 13.5 -8t0.5 -16z" />
    <glyph glyph-name="arrows-v" unicode="&#xf07d;" horiz-adv-x="192" 
d="M181 48q-3 4 -8 4t-9 -4l-51 -52v392l51 -52q4 -4 9 -4t8 4l7 7q4 4 4 8.5t-4 8.5l-84 84q-3 4 -8 4t-8 -4l-84 -84q-4 -4 -4 -8.5t4 -8.5l7 -7q3 -4 8 -4t9 4l51 52v-392l-51 52q-4 4 -9 4t-8 -4l-7 -7q-4 -4 -4 -8.5t4 -8.5l84 -84q3 -4 8 -4t8 4l84 84q4 4 4 8.5
t-4 8.5z" />
    <glyph glyph-name="arrows-h" unicode="&#xf07e;" 
d="M400 277q-4 -3 -4 -8t4 -9l52 -51h-392l52 51q4 4 4 9t-4 8l-7 7q-4 4 -8.5 4t-8.5 -4l-84 -84q-4 -3 -4 -8t4 -8l84 -84q4 -4 8.5 -4t8.5 4l7 7q4 3 4 8t-4 9l-52 51h392l-52 -51q-4 -4 -4 -9t4 -8l7 -7q4 -4 8.5 -4t8.5 4l84 84q4 3 4 8t-4 8l-84 84q-4 4 -8.5 4
t-8.5 -4z" />
    <glyph glyph-name="chart-bar" unicode="&#xf080;" 
d="M500 32q5 0 8.5 -3.5t3.5 -8.5v-8q0 -5 -3.5 -8.5t-8.5 -3.5h-488q-5 0 -8.5 3.5t-3.5 8.5v360q0 5 3.5 8.5t8.5 3.5h8q5 0 8.5 -3.5t3.5 -8.5v-340h468zM160 102v84q0 2 -2 4t-4 2h-20q-2 0 -4 -2t-2 -4v-84q0 -2 2 -4t4 -2h20q2 0 4 2t2 4zM448 102v244q0 2 -2 4t-4 2
h-20q-2 0 -4 -2t-2 -4v-244q0 -2 2 -4t4 -2h20q2 0 4 2t2 4zM352 102v148q0 2 -2 4t-4 2h-20q-2 0 -4 -2t-2 -4v-148q0 -2 2 -4t4 -2h20q2 0 4 2t2 4zM256 102v212q0 2 -2 4t-4 2h-20q-2 0 -4 -2t-2 -4v-212q0 -2 2 -4t4 -2h20q2 0 4 2t2 4z" />
    <glyph glyph-name="camera-retro" unicode="&#xf083;" 
d="M32 390v20q0 2 2 4t4 2h116q2 0 4 -2t2 -4v-20q0 -2 -2 -4t-4 -2h-116q-2 0 -4 2t-2 4zM376 160q0 33 -16 60.5t-43.5 43.5t-60.5 16t-60.5 -16t-43.5 -43.5t-16 -60.5t16 -60.5t43.5 -43.5t60.5 -16t60.5 16t43.5 43.5t16 60.5zM344 160q0 -36 -26 -62t-62 -26t-62 26
t-26 62t26 62t62 26t62 -26t26 -62zM224 160q0 13 9.5 22.5t22.5 9.5q7 0 11.5 4.5t4.5 11.5t-4.5 11.5t-11.5 4.5q-26 0 -45 -19t-19 -45q0 -7 4.5 -11.5t11.5 -4.5t11.5 4.5t4.5 11.5zM512 368v-352q0 -20 -14 -34t-34 -14h-416q-20 0 -34 14t-14 34v288q0 20 14 34t34 14
h136l34 45q14 19 38 19h208q20 0 34 -14t14 -34zM224 352h240q8 0 16 -3v19q0 7 -4.5 11.5t-11.5 4.5h-208q-8 0 -13 -6zM480 304q0 7 -4.5 11.5t-11.5 4.5h-416q-7 0 -11.5 -4.5t-4.5 -11.5v-288q0 -7 4.5 -11.5t11.5 -4.5h416q7 0 11.5 4.5t4.5 11.5v288z" />
    <glyph glyph-name="key" unicode="&#xf084;" 
d="M336 416q39 0 72 -19.5t52.5 -52.5t19.5 -72t-19.5 -72t-52.5 -52.5t-72 -19.5q-28 0 -54 10l-42 -42h-48v-64h-64v-64h-96v80l170 170q-10 26 -10 54q0 39 19.5 72t52.5 52.5t72 19.5zM336 448q-48 0 -88.5 -23.5t-64 -64t-23.5 -88.5q0 -23 6 -45l-159 -159
q-7 -7 -7 -17v-91q0 -10 7 -17t17 -7h112q10 0 17 7t7 17v40h40q10 0 17 7t7 17v40h19q10 0 17 7l31 31q22 -6 45 -6q48 0 88.5 23.5t64 64t23.5 88.5t-23.5 88.5t-64 64t-88.5 23.5zM384 340q8 0 14 -6t6 -14t-6 -14t-14 -6t-14 6t-6 14t6 14t14 6zM384 368q-20 0 -34 -14
t-14 -34t14 -34t34 -14t34 14t14 34t-14 34t-34 14z" />
    <glyph glyph-name="cogs" unicode="&#xf085;" horiz-adv-x="640" 
d="M539 252l-3 4q-6 -1 -12 0l-3 -4q-4 -7 -11.5 -10t-15.5 -1q-20 7 -34 19q-7 5 -8.5 13.5t2.5 16.5l3 4q-4 5 -6 11h-9q-9 0 -15.5 5.5t-8.5 13.5q-4 20 0 39q2 8 8.5 13.5t15.5 5.5h9q2 6 6 11l-3 5q-4 7 -2.5 15.5t7.5 14.5q15 12 34 19q8 3 16 0t12 -11l3 -4h12l3 4
q4 8 12 11t16 0q19 -6 34 -19q6 -6 7.5 -14.5t-2.5 -16.5l-3 -4q4 -5 6 -11h6q8 0 14.5 -5.5t8.5 -13.5q4 -19 0 -39q-2 -8 -8.5 -13.5t-15.5 -5.5h-5q-2 -6 -6 -11l3 -4q4 -8 2.5 -16.5t-8.5 -14.5q-14 -11 -34 -18q-8 -2 -15.5 1t-11.5 10zM551 286l10 -18q10 4 19 11
l-10 18l6 7q7 9 11 19l3 10h21q2 11 0 21h-21l-3 10q-4 10 -11 19l-6 7l10 19q-8 6 -19 10l-10 -18l-10 2q-11 2 -22 0l-10 -2l-10 18q-10 -4 -19 -10l11 -19l-7 -7q-7 -9 -11 -19l-3 -10h-21q-2 -10 0 -21h21l3 -9q4 -11 11 -20l7 -7l-11 -18q8 -7 19 -11l10 18l10 -2
q11 -2 22 0zM145 -6v31q-19 8 -36 21l-28 -16q-7 -4 -15.5 -2.5t-13.5 7.5q-19 20 -30.5 40t-20.5 48q-2 8 1 16t10 12l27 16q-2 21 0 42l-27 16q-7 4 -10 12t-1 16q9 28 20.5 48t30.5 40q5 6 13.5 7.5t15.5 -2.5l28 -16q16 12 36 21v31q0 9 5.5 15.5t13.5 8.5q27 6 50 6
t52 -6q8 -2 13.5 -8.5t5.5 -15.5v-31q19 -8 36 -21l27 16q8 4 16.5 2.5t13.5 -7.5q20 -22 32 -42.5t20 -45.5q3 -8 0 -16t-10 -12l-25 -16q3 -21 0 -42l28 -18q7 -4 10 -11t1 -14q-8 -38 -56 -89q-6 -6 -14 -7.5t-16 2.5l-27 16q-17 -12 -36 -21v-32q0 -8 -5.5 -14.5
t-13.5 -8.5q-28 -6 -51 -6t-51 6q-8 2 -13.5 8.5t-5.5 15.5zM177 0q38 -8 76 0v48l10 3q26 9 46 27l9 7l41 -24q33 37 42 65l-41 24l2 12q5 26 0 53l-2 11l41 24q-9 28 -42 65l-41 -24l-9 7q-20 18 -46 27l-10 4v47q-38 8 -76 0v-47l-10 -4q-26 -9 -46 -27l-9 -7l-41 24
q-26 -29 -38 -66l41 -23l-2 -11q-5 -27 0 -54l2 -11l-41 -24q12 -36 38 -65l41 24l9 -7q20 -18 46 -27l10 -4v-47zM216 105q-35 0 -59 24.5t-24 58.5t24 58.5t58.5 24.5t59 -24.5t24.5 -58.5t-24.5 -58.5t-58.5 -24.5zM216 239q-21 0 -36 -15t-15 -36t15 -36t36 -15t36 15
t15 36t-15 36t-36 15zM539 -53l-3 4h-12l-3 -4q-4 -7 -11.5 -9.5t-15.5 -0.5q-20 6 -34 18q-7 6 -8.5 14.5t2.5 16.5l3 4q-4 5 -6 10h-9q-9 0 -15.5 5.5t-8.5 14.5q-4 19 0 39q2 8 8.5 13.5t15.5 5.5h9q2 6 6 11l-3 4q-4 8 -2.5 16.5t7.5 13.5q15 13 34 19q8 3 16 0t12 -10
l3 -5q6 1 12 0l3 5q4 7 12 10t16 0q19 -6 34 -19q6 -5 7.5 -13.5t-2.5 -16.5l-3 -4q4 -5 6 -11h6q8 0 14.5 -5.5t8.5 -14.5q4 -19 0 -38q-2 -9 -8.5 -14.5t-15.5 -5.5h-5q-2 -5 -6 -10l3 -4q4 -8 2.5 -16.5t-8.5 -14.5q-14 -12 -34 -18q-8 -2 -15.5 0.5t-11.5 9.5zM551 -18
l10 -18q10 4 19 10l-10 19l6 7q7 9 11 19l3 10h21q2 10 0 21h-21l-3 9q-4 11 -11 19l-6 8l10 18q-8 7 -19 11l-10 -18l-10 2q-11 2 -22 0l-10 -2l-10 18q-10 -4 -19 -11l11 -18l-7 -8q-7 -9 -11 -19l-3 -9h-21q-2 -11 0 -21h21l3 -10q4 -10 11 -19l7 -7l-11 -19q8 -6 19 -10
l10 18l10 -2q11 -2 22 0zM560 40q0 13 -9.5 22.5t-22.5 9.5t-22.5 -9.5t-9.5 -22.5t9.5 -22.5t22.5 -9.5t22.5 9.5t9.5 22.5zM560 344q0 14 -9.5 23t-22.5 9t-22.5 -9t-9.5 -22.5t9.5 -23t22.5 -9.5t22.5 9.5t9.5 22.5z" />
    <glyph glyph-name="comments" unicode="&#xf086;" horiz-adv-x="576" 
d="M575 -8q-3 -11 -11.5 -17.5t-19.5 -6.5q-60 0 -120 36q-40 -11 -83 -9.5t-83 16.5q46 2 89 16q43 -1 82 12q27 -18 51 -27q31 -12 64 -12q-26 14 -38 32q-10 15 -14 42q24 19 37 43q15 27 15 57t-16 58q1 30 -8 60q26 -24 41 -54.5t15 -64.5q0 -30 -12.5 -58.5
t-36.5 -52.5q4 -11 11 -18.5t22 -15.5q9 -5 13.5 -15t1.5 -21zM240 384q-56 0 -104 -20t-76 -53.5t-28 -73.5q0 -29 16 -56q15 -24 40 -43q-4 -27 -15 -42q-13 -18 -41 -32q35 0 70 12q25 9 55 27q40 -12 83 -12q56 0 104 19.5t76 53.5t28 73.5t-28 73t-76 53.5t-104 20z
M240 416q65 0 120 -24t87.5 -65t32.5 -90t-32.5 -90t-87.5 -64.5t-120 -23.5q-41 0 -79 9q-64 -36 -129 -36q-11 0 -20 7t-11.5 17.5t2.5 20.5t14 15q17 9 26 18q6 7 9 16q-25 23 -38.5 52t-13.5 59q0 49 32.5 90t88 65t119.5 24z" />
    <glyph glyph-name="star-half" unicode="&#xf089;" horiz-adv-x="576" 
d="M288 45l-145 -77l27 162l-117 115l162 24l73 147v32q-9 0 -16.5 -4.5t-12.5 -13.5l-65 -132l-146 -21q-13 -2 -20.5 -12t-7 -22t9.5 -21l106 -103l-25 -145q-2 -13 4.5 -23t18.5 -13.5t23 2.5l131 68v37z" />
    <glyph glyph-name="sign-out" unicode="&#xf08b;" 
d="M48 384h132q5 0 8.5 -3.5t3.5 -8.5v-8q0 -5 -3.5 -8.5t-8.5 -3.5h-132q-7 0 -11.5 -4.5t-4.5 -11.5v-288q0 -7 4.5 -11.5t11.5 -4.5h132q5 0 8.5 -3.5t3.5 -8.5v-8q0 -5 -3.5 -8.5t-8.5 -3.5h-132q-20 0 -34 14t-14 34v288q0 20 14 34t34 14zM327 365l-7 -8q-4 -3 -4 -8
t4 -9l132 -131h-280q-5 0 -8.5 -3.5t-3.5 -8.5v-10q0 -5 3.5 -8.5t8.5 -3.5h280l-132 -131q-4 -4 -4 -9t4 -8l7 -7q4 -4 9 -4t8 3l165 165q3 3 3 8t-3 9l-165 164q-4 3 -8.5 3t-8.5 -3z" />
    <glyph glyph-name="thumbtack" unicode="&#xf08d;" horiz-adv-x="384" 
d="M301 244l-10 76h37q10 0 17 7t7 17v80q0 10 -7 17t-17 7h-272q-10 0 -17 -7t-7 -17v-80q0 -10 7 -17t17 -7h37l-10 -76q-38 -21 -59 -55q-24 -35 -24 -76q0 -7 4.5 -11.5t11.5 -4.5h160v-123l8 -32q2 -6 8 -6t8 6l8 34v121h160q7 0 11.5 4.5t4.5 11.5q0 41 -24 76
q-21 34 -59 55zM33 129q5 31 28 56q20 24 52 38l15 129h-64v64h256v-64h-64l15 -129q32 -14 52 -38q23 -25 28 -56h-318z" />
    <glyph glyph-name="external-link" unicode="&#xf08e;" horiz-adv-x="576" 
d="M196 73q-4 4 -4 9t4 8l323 323l-1 1h-90q-5 0 -8.5 3.5t-3.5 8.5v10q0 5 3.5 8.5t8.5 3.5h136q5 0 8.5 -3.5t3.5 -8.5v-136q0 -5 -3.5 -8.5t-8.5 -3.5h-10q-5 0 -8.5 3.5t-3.5 8.5v90l-1 1l-323 -323q-3 -4 -8 -4t-9 4zM428 229l-8 -8q-4 -4 -4 -9v-228q0 -7 -4.5 -11.5
t-11.5 -4.5h-352q-7 0 -11.5 4.5t-4.5 11.5v352q0 7 4.5 11.5t11.5 4.5h340q5 0 8 4l8 8q6 5 3 12.5t-11 7.5h-348q-20 0 -34 -14t-14 -34v-352q0 -20 14 -34t34 -14h352q20 0 34 14t14 34v236q0 8 -7.5 11t-12.5 -2z" />
    <glyph glyph-name="sign-in" unicode="&#xf090;" 
d="M184 365l165 -164q3 -4 3 -9t-3 -9l-165 -163q-4 -4 -8.5 -4t-8.5 3l-7 8q-4 3 -4 8t4 9l132 131h-280q-5 0 -8.5 3.5t-3.5 8.5v10q0 5 3.5 8.5t8.5 3.5h280l-132 131q-4 4 -4 9t4 8l7 8q4 3 8.5 3t8.5 -3zM512 48v288q0 20 -14 34t-34 14h-132q-5 0 -8.5 -3.5t-3.5 -8.5
v-8q0 -5 3.5 -8.5t8.5 -3.5h132q7 0 11.5 -4.5t4.5 -11.5v-288q0 -7 -4.5 -11.5t-11.5 -4.5h-132q-5 0 -8.5 -3.5t-3.5 -8.5v-8q0 -5 3.5 -8.5t8.5 -3.5h132q20 0 34 14t14 34z" />
    <glyph glyph-name="trophy" unicode="&#xf091;" horiz-adv-x="576" 
d="M448 384v52q0 5 -3.5 8.5t-8.5 3.5h-296q-5 0 -8.5 -3.5t-3.5 -8.5v-52h-116q-5 0 -8.5 -3.5t-3.5 -8.5v-62q0 -31 21 -62.5t57 -54.5q38 -24 83 -31q20 -43 52 -68q28 -23 59 -29v-97h-86q-11 0 -18.5 -7.5t-7.5 -18.5q0 -3 2 -4.5t4 -1.5h244q2 0 4 1.5t2 4.5
q0 11 -7.5 18.5t-18.5 7.5h-86v97q31 6 59 29q32 25 52 68q45 7 83 31q36 23 57 54.5t21 62.5v62q0 5 -3.5 8.5t-8.5 3.5h-116zM32 310v42h96v-24q0 -73 19 -130q-33 8 -61 28q-25 18 -39.5 41t-14.5 43zM288 96q-35 0 -64.5 31t-46.5 84.5t-17 116.5v88h256v-88
q0 -63 -17 -116.5t-46.5 -84.5t-64.5 -31zM544 310q0 -20 -14.5 -43t-39.5 -41q-28 -20 -60 -28q18 57 18 130v24h96v-42z" />
    <glyph glyph-name="upload" unicode="&#xf093;" 
d="M452 16q0 -8 -6 -14t-14 -6t-14 6t-6 14t6 14t14 6t14 -6t6 -14zM368 36q-8 0 -14 -6t-6 -14t6 -14t14 -6t14 6t6 14t-6 14t-14 6zM512 84v-104q0 -18 -13 -31t-31 -13h-424q-18 0 -31 13t-13 31v104q0 18 13 31t31 13h124v99h-53q-17 0 -28 12t-11.5 28t11.5 29l141 140
q11 12 28 12t28 -12l141 -140q12 -13 11.5 -29t-11.5 -28t-28 -12h-53v-99h124q18 0 31 -13t13 -31zM200 259v-187q0 -3 2.5 -5.5t5.5 -2.5h96q3 0 5.5 2.5t2.5 5.5v187h85q5 0 7 5t-2 9l-140 141q-3 2 -6 2t-6 -2l-140 -141q-4 -4 -2 -9t7 -5h85zM480 84q0 5 -3.5 8.5
t-8.5 3.5h-124v-24q0 -17 -11.5 -28.5t-28.5 -11.5h-96q-17 0 -28.5 11.5t-11.5 28.5v24h-124q-5 0 -8.5 -3.5t-3.5 -8.5v-104q0 -5 3.5 -8.5t8.5 -3.5h424q5 0 8.5 3.5t3.5 8.5v104z" />
    <glyph glyph-name="lemon" unicode="&#xf094;" 
d="M489 425q-23 23 -51 23q-14 0 -24 -6q-13 -8 -35 -9q-13 0 -45 2q-45 4 -70 2q-44 -2 -82 -19q-46 -20 -89 -63t-63 -89q-17 -38 -19 -82q-2 -25 2 -70q2 -32 2 -45q-1 -22 -9 -35q-9 -16 -4.5 -37t21.5 -38t38 -21.5t37 4.5q13 8 35 9q13 0 45 -2q45 -4 70 -2
q44 2 82 19q46 20 89 63t63 89q17 38 19 82q2 25 -2 70q-2 32 -2 45q1 22 9 35q9 16 4.5 37t-21.5 38zM478 366q-11 -19 -13 -46q-1 -16 2 -52q4 -42 3 -65q-3 -39 -17 -73q-18 -40 -56.5 -78.5t-78.5 -56.5q-34 -14 -73 -17q-23 -1 -65 3q-36 3 -52 2q-27 -2 -46 -13
q-10 -6 -24 2t-22 22t-2 24q11 19 13 46q1 16 -2 52q-4 42 -3 65q3 39 17 73q18 40 56.5 78.5t78.5 56.5q34 14 73 17q23 1 65 -3q36 -3 52 -2q27 2 46 13q10 6 24 -2t22 -22t2 -24zM259 336q-49 -11 -92.5 -54.5t-54.5 -92.5q-2 -6 -6 -9.5t-10 -3.5h-3q-7 2 -10.5 7.5
t-2.5 11.5q13 59 63.5 109.5t109.5 63.5q6 1 11.5 -2.5t7 -10t-2 -12t-10.5 -7.5z" />
    <glyph glyph-name="phone" unicode="&#xf095;" 
d="M488 424l-101 23q-11 3 -21 -2.5t-15 -15.5l-46 -108q-4 -10 -1.5 -20t10.5 -17l54 -44q-26 -52 -67 -93t-93 -67l-44 54q-7 8 -17 10.5t-20 -1.5l-108 -46q-10 -5 -15.5 -15t-2.5 -21l23 -101q3 -10 11.5 -17t19.5 -7q124 0 230 62q104 61 164 164q63 107 63 232
q0 10 -7 18.5t-17 11.5zM55 -32l-23 100l108 46l59 -73q78 36 125 83t83 125l-73 59l46 108l100 -23q0 -115 -58 -214q-57 -97 -153 -153q-99 -58 -214 -58z" />
    <glyph glyph-name="phone-square" unicode="&#xf098;" horiz-adv-x="448" 
d="M400 416h-352q-20 0 -34 -14t-14 -34v-352q0 -20 14 -34t34 -14h352q20 0 34 14t14 34v352q0 20 -14 34t-34 14zM416 16q0 -7 -4.5 -11.5t-11.5 -4.5h-352q-7 0 -11.5 4.5t-4.5 11.5v352q0 7 4.5 11.5t11.5 4.5h352q7 0 11.5 -4.5t4.5 -11.5v-352zM361 338l-58 13
q-11 3 -20.5 -2t-13.5 -15l-27 -63q-4 -9 -1.5 -18.5t9.5 -15.5l24 -20q-26 -49 -75 -75l-20 24q-6 7 -15.5 9.5t-18.5 -1.5l-63 -27q-10 -4 -15 -13.5t-2 -20.5l13 -58q3 -10 11 -16.5t18 -6.5q75 0 139 37t100 100q38 65 38 140q0 10 -6.5 18t-16.5 11zM109 64l-13 55
l60 25l34 -42q47 22 74.5 49t49.5 75l-42 34l25 60l55 -13q-1 -66 -33.5 -121.5t-88 -88t-121.5 -33.5z" />
    <glyph glyph-name="unlock" unicode="&#xf09c;" horiz-adv-x="384" 
d="M336 192h-240v96q0 58 22 90q24 38 74 38t74 -38q22 -32 22 -90v-20q0 -5 3.5 -8.5t8.5 -3.5h8q5 0 8.5 3.5t3.5 8.5v19q0 70 -31 113q-33 48 -96.5 48t-97.5 -47q-31 -42 -31 -113v-96h-16q-20 0 -34 -14t-14 -34v-160q0 -20 14 -34t34 -14h288q20 0 34 14t14 34v160
q0 20 -14 34t-34 14zM352 -16q0 -7 -4.5 -11.5t-11.5 -4.5h-288q-7 0 -11.5 4.5t-4.5 11.5v160q0 7 4.5 11.5t11.5 4.5h288q7 0 11.5 -4.5t4.5 -11.5v-160z" />
    <glyph glyph-name="credit-card" unicode="&#xf09d;" horiz-adv-x="576" 
d="M528 416h-480q-20 0 -34 -14t-14 -34v-352q0 -20 14 -34t34 -14h480q20 0 34 14t14 34v352q0 20 -14 34t-34 14zM48 384h480q7 0 11.5 -4.5t4.5 -11.5v-48h-512v48q0 7 4.5 11.5t11.5 4.5zM528 0h-480q-7 0 -11.5 4.5t-4.5 11.5v208h512v-208q0 -7 -4.5 -11.5t-11.5 -4.5
zM192 84v-8q0 -5 -3.5 -8.5t-8.5 -3.5h-72q-5 0 -8.5 3.5t-3.5 8.5v8q0 5 3.5 8.5t8.5 3.5h72q5 0 8.5 -3.5t3.5 -8.5zM384 84v-8q0 -5 -3.5 -8.5t-8.5 -3.5h-136q-5 0 -8.5 3.5t-3.5 8.5v8q0 5 3.5 8.5t8.5 3.5h136q5 0 8.5 -3.5t3.5 -8.5z" />
    <glyph glyph-name="rss" unicode="&#xf09e;" horiz-adv-x="448" 
d="M80 96q20 0 34 -14t14 -34t-14 -34t-34 -14t-34 14t-14 34t14 34t34 14zM80 128q-33 0 -56.5 -23.5t-23.5 -56.5t23.5 -56.5t56.5 -23.5t56.5 23.5t23.5 56.5t-23.5 56.5t-56.5 23.5zM448 -20q-3 117 -63 218q-58 97 -156 155q-100 60 -217 63q-5 0 -8.5 -3.5t-3.5 -8.5
v-8q0 -5 3.5 -8.5t8.5 -3.5q108 -3 201 -59q91 -54 145 -144q55 -93 58 -201q0 -5 3.5 -8.5t8.5 -3.5h8q5 0 8.5 3.5t3.5 8.5zM304 -20q-3 78 -42.5 144t-105.5 105.5t-144 42.5q-5 0 -8.5 -3.5t-3.5 -8.5v-8q0 -5 3.5 -8.5t8.5 -3.5q69 -3 127.5 -38.5t94 -94t38.5 -127.5
q0 -5 3.5 -8.5t8.5 -3.5h8q5 0 8.5 3.5t3.5 8.5z" />
    <glyph glyph-name="hdd" unicode="&#xf0a0;" horiz-adv-x="576" 
d="M567 221l-105 143q-6 10 -16.5 15t-21.5 5h-272q-11 0 -21.5 -5t-16.5 -15l-105 -143q-9 -13 -9 -29v-144q0 -20 14 -34t34 -14h480q20 0 34 14t14 34v144q0 16 -9 29zM140 345q4 7 12 7h272q8 0 12 -7l89 -121h-474zM544 176v-128q0 -7 -4.5 -11.5t-11.5 -4.5h-480
q-7 0 -11.5 4.5t-4.5 11.5v128q0 7 4.5 11.5t11.5 4.5h480q7 0 11.5 -4.5t4.5 -11.5zM488 112q0 -10 -7 -17t-17 -7t-17 7t-7 17t7 17t17 7t17 -7t7 -17zM424 112q0 -10 -7 -17t-17 -7t-17 7t-7 17t7 17t17 7t17 -7t7 -17z" />
    <glyph glyph-name="bullhorn" unicode="&#xf0a1;" horiz-adv-x="576" 
d="M544 256v160q0 13 -9.5 22.5t-22.5 9.5q-61 -53 -128 -85q-88 -43 -176 -43h-160q-20 0 -34 -14t-14 -34v-96q0 -20 14 -34t34 -14h17q-3 -33 4 -70q5 -21 18 -61l7 -21q2 -7 8 -13q13 -13 30 -20t35 -7q24 0 44.5 12.5t30.5 35.5q6 11 2.5 22.5t-13.5 18.5
q-21 13 -26 18.5t-1 12.5q5 9 4 19.5t-8 18.5q-5 4 -1.5 16.5t12.5 17.5q86 -1 174 -43q66 -32 127 -85q13 0 22.5 9.5t9.5 22.5v160q13 0 22.5 9.5t9.5 22.5t-9.5 22.5t-22.5 9.5zM214 -2q-9 -18 -25 -25t-34 -3.5t-31 16.5l-7 21q-12 38 -16 58q-7 33 -4 63h74
q-7 -15 -5.5 -30.5t10.5 -25.5q-13 -23 0 -43q10 -14 38 -31zM32 176v96q0 7 4.5 11.5t11.5 4.5h176v-128h-176q-7 0 -11.5 4.5t-4.5 11.5zM512 42q-56 44 -114 72q-71 34 -142 43v134q71 9 142 43q59 29 114 72v-364z" />
    <glyph glyph-name="certificate" unicode="&#xf0a3;" 
d="M496 176l-17 16l17 16q14 14 15.5 33.5t-9.5 35.5t-30 21l-23 6l7 22q5 20 -3.5 37t-26 25.5t-36.5 3.5l-22 -7l-6 23q-5 19 -21 30t-35.5 9.5t-33.5 -15.5l-16 -17l-16 17q-14 14 -33.5 15.5t-35.5 -9t-21 -30.5l-6 -23l-22 7q-19 5 -36.5 -3.5t-26 -25.5t-3.5 -37
l7 -22l-23 -6q-19 -5 -30 -21t-9.5 -35.5t15.5 -33.5l17 -16l-17 -16q-14 -14 -15.5 -33.5t9.5 -35.5t30 -21l23 -5l-7 -23q-5 -20 3.5 -37t26 -25.5t36.5 -3.5l22 7l6 -23q5 -20 21 -30.5t35.5 -9t33.5 15.5l16 17l16 -17q14 -14 33.5 -15.5t35.5 9t21 30.5l6 23l22 -7
q19 -5 36.5 3.5t26 25.5t3.5 37l-7 23l23 5q19 5 30 21t9.5 35.5t-15.5 33.5zM464 117l-55 -14l16 -54q3 -12 -5.5 -20.5t-20.5 -5.5l-54 16l-14 -55q-3 -12 -15 -15t-21 5l-39 41l-39 -41q-9 -8 -21 -5t-15 15l-14 55l-54 -16q-12 -3 -20.5 5.5t-5.5 20.5l16 54l-55 14
q-12 3 -15 15t5 21l41 39l-41 39q-8 9 -5 21t15 15l55 14l-16 54q-3 12 5.5 20.5t20.5 5.5l54 -15l14 54q3 12 15 15t21 -5l39 -41l39 41q9 9 21 5.5t15 -15.5l14 -54l54 15q12 3 20.5 -5.5t5.5 -20.5l-16 -54l55 -14q12 -3 15 -15t-5 -21l-41 -39l41 -39q8 -9 5 -21
t-15 -15z" />
    <glyph glyph-name="hand-point-right" unicode="&#xf0a4;" 
d="M442 301h-122q10 22 10 45q0 30 -21.5 50t-52.5 20q-25 0 -41 -19q-10 -11 -21 -38q-7 -14 -10 -19q-10 -16 -28 -37q-20 -24 -33 -30q-9 15 -27 15h-64q-13 0 -22.5 -9.5t-9.5 -22.5v-224q0 -13 9.5 -22.5t22.5 -9.5h64q14 0 23 10q13 -3 41 -17q24 -12 38 -17
q24 -8 46 -8h24q43 0 66 23.5t22 62.5q11 13 15.5 30.5t1.5 34.5q11 19 12 40v1h57q28 0 49 21t21 49.5t-21 49.5t-49 21zM32 256h64v-224h-64v224zM442 192h-100q11 -13 10.5 -32.5t-15.5 -34.5q9 -15 3.5 -33t-17.5 -25q5 -32 -9 -49.5t-46 -17.5h-24q-17 0 -37 7
q-11 4 -33 15q-30 15 -46 19v199q20 7 47 36q22 24 36 47q5 8 13 25.5t13 24.5q8 11 19 11q18 0 30 -11t12 -26.5t-6 -30.5q-4 -8 -13 -22q-10 -17 -10 -25h173q15 0 26.5 -11.5t11.5 -27t-11.5 -27t-26.5 -11.5zM84 64q0 -8 -6 -14t-14 -6t-14 6t-6 14t6 14t14 6t14 -6
t6 -14z" />
    <glyph glyph-name="hand-point-left" unicode="&#xf0a5;" 
d="M0 230q0 -28 21 -49t49 -21h57v-1q1 -21 12 -40q-3 -17 1.5 -34.5t15.5 -30.5q-1 -39 22 -62.5t66 -23.5h24q22 0 46 8q14 5 38 17q28 14 41 17q9 -10 23 -10h64q13 0 22.5 9.5t9.5 22.5v224q0 13 -9.5 22.5t-22.5 9.5h-64q-18 0 -27 -15q-13 6 -33 30q-18 21 -28 37
q-3 5 -10 19q-11 27 -21 38q-16 19 -41 19q-31 0 -52.5 -20t-21.5 -50q0 -23 10 -45h-122q-28 0 -49 -21t-21 -50zM480 32h-64v224h64v-224zM32 230q0 16 11.5 27.5t26.5 11.5h173q0 8 -10 25q-9 14 -13 22q-6 15 -6 30.5t12 26.5t30 11q11 0 19 -11q5 -7 13 -24.5t13 -25.5
q14 -23 36 -47q27 -29 47 -36v-199q-16 -4 -46 -19q-22 -11 -33 -15q-20 -7 -37 -7h-24q-32 0 -46 17.5t-9 49.5q-12 7 -17.5 25t3.5 33q-15 15 -15.5 34.5t10.5 32.5h-100q-15 0 -26.5 11.5t-11.5 26.5zM448 84q8 0 14 -6t6 -14t-6 -14t-14 -6t-14 6t-6 14t6 14t14 6z" />
    <glyph glyph-name="hand-point-up" unicode="&#xf0a6;" horiz-adv-x="448" 
d="M115 378v-122q-22 10 -45 10q-30 0 -50 -21.5t-20 -52.5q0 -25 19 -41q11 -10 38 -21q14 -7 19 -10q16 -10 37 -28q24 -20 30 -33q-15 -9 -15 -27v-64q0 -13 9.5 -22.5t22.5 -9.5h224q13 0 22.5 9.5t9.5 22.5v64q0 14 -10 23q3 13 17 41q12 24 17 38q8 24 8 46v24
q0 43 -23.5 66t-62.5 22q-13 11 -30.5 15.5t-34.5 1.5q-19 11 -40 12h-1v57q0 28 -21 49t-49.5 21t-49.5 -21t-21 -49zM160 -32v64h224v-64h-224zM224 378v-100q13 11 32.5 10.5t34.5 -15.5q15 9 33 3.5t25 -17.5q32 5 49.5 -9t17.5 -46v-24q0 -17 -7 -37q-4 -11 -15 -33
q-15 -30 -19 -46h-199q-7 20 -36 47q-24 22 -47 36q-8 5 -25.5 13t-24.5 13q-11 8 -11 19q0 18 11 30t26.5 12t30.5 -6q8 -4 22 -13q17 -10 25 -10v173q0 15 11.5 26.5t27 11.5t27 -11.5t11.5 -26.5zM352 20q8 0 14 -6t6 -14t-6 -14t-14 -6t-14 6t-6 14t6 14t14 6z" />
    <glyph glyph-name="hand-point-down" unicode="&#xf0a7;" horiz-adv-x="448" 
d="M186 -64q28 0 49 21t21 49v57h1q21 1 40 12q17 -3 34.5 1.5t30.5 15.5q39 -1 62.5 22t23.5 66v24q0 22 -8 46q-5 14 -17 38q-14 28 -17 41q10 9 10 23v64q0 13 -9.5 22.5t-22.5 9.5h-224q-13 0 -22.5 -9.5t-9.5 -22.5v-64q0 -18 15 -27q-6 -13 -30 -33q-21 -18 -37 -28
q-5 -3 -19 -10q-27 -11 -38 -21q-19 -16 -19 -41q0 -31 20 -52.5t50 -21.5q23 0 45 10v-122q0 -28 21 -49t50 -21zM384 416v-64h-224v64h224zM186 -32q-16 0 -27.5 11.5t-11.5 26.5v173q-8 0 -25 -10q-14 -9 -22 -13q-15 -6 -30.5 -6t-26.5 12t-11 30q0 11 11 19
q7 5 24.5 13t25.5 13q23 14 47 36q29 27 36 47h199q4 -16 19 -46q11 -22 15 -33q7 -20 7 -37v-24q0 -32 -17.5 -46t-49.5 -9q-7 -12 -25 -17.5t-33 3.5q-15 -15 -34.5 -15.5t-32.5 10.5v-100q0 -15 -11.5 -26.5t-26.5 -11.5zM332 384q0 8 6 14t14 6t14 -6t6 -14t-6 -14
t-14 -6t-14 6t-6 14z" />
    <glyph glyph-name="arrow-circle-left" unicode="&#xf0a8;" 
d="M504 192q0 67 -33.5 124t-90.5 90.5t-124 33.5t-124 -33.5t-90.5 -90.5t-33.5 -124t33.5 -124t90.5 -90.5t124 -33.5t124 33.5t90.5 90.5t33.5 124zM256 -24q-58 0 -108 29t-79 78.5t-29 108t29 108.5t78.5 79t108 29t108.5 -29t79 -78.5t29 -108t-29 -108.5t-78.5 -79
t-108.5 -29zM244 69l-116 115q-3 3 -3 8t3 9l116 115q3 3 8 3t9 -3l6 -7q4 -4 4 -9t-4 -8l-85 -83h190q5 0 8.5 -3.5t3.5 -8.5v-10q0 -5 -3.5 -8.5t-8.5 -3.5h-190l85 -82q4 -4 4 -9t-3 -9l-7 -6q-4 -4 -9 -4t-9 4h1z" />
    <glyph glyph-name="arrow-circle-right" unicode="&#xf0a9;" 
d="M8 192q0 -67 33.5 -124t90.5 -90.5t124 -33.5t124 33.5t90.5 90.5t33.5 124t-33.5 124t-90.5 90.5t-124 33.5t-124 -33.5t-90.5 -90.5t-33.5 -124zM256 408q58 0 108 -29t79 -78.5t29 -108t-29 -108.5t-78.5 -79t-108 -29t-108.5 29t-79 78.5t-29 108t29 108.5t78.5 79
t108.5 29zM269 316l115 -115q3 -4 3 -9t-3 -9l-115 -114q-4 -4 -9 -4t-8 4l-7 6q-4 4 -4 9t4 9l85 82h-190q-5 0 -8.5 3.5t-3.5 8.5v10q0 5 3.5 8.5t8.5 3.5h190l-85 83q-4 3 -4 8t4 9l6 7q4 3 9 3t8 -3h1z" />
    <glyph glyph-name="arrow-circle-up" unicode="&#xf0aa;" 
d="M256 -56q67 0 124 33.5t90.5 90.5t33.5 124t-33.5 124t-90.5 90.5t-124 33.5t-124 -33.5t-90.5 -90.5t-33.5 -124t33.5 -124t90.5 -90.5t124 -33.5zM40 192q0 58 29 108t78.5 79t108 29t108.5 -29t79 -78.5t29 -108t-29 -108.5t-78.5 -79t-108 -29t-108.5 29t-79 78.5
t-29 108.5zM133 205l115 115q3 3 8 3t9 -3l115 -115q3 -4 3 -9t-3 -9l-7 -6q-4 -4 -9 -4t-8 4l-83 85v-190q0 -5 -3.5 -8.5t-8.5 -3.5h-10q-5 0 -8.5 3.5t-3.5 8.5v190l-82 -85q-4 -4 -9 -4t-9 4l-6 6q-4 4 -4 9t4 8v1z" />
    <glyph glyph-name="arrow-circle-down" unicode="&#xf0ab;" 
d="M256 440q-67 0 -124 -33.5t-90.5 -90.5t-33.5 -124t33.5 -124t90.5 -90.5t124 -33.5t124 33.5t90.5 90.5t33.5 124t-33.5 124t-90.5 90.5t-124 33.5zM472 192q0 -58 -29 -108t-78.5 -79t-108 -29t-108.5 29t-79 78.5t-29 108t29 108.5t78.5 79t108 29t108.5 -29t79 -78.5
t29 -108.5zM380 197l-7 6q-4 4 -9 4t-8 -4l-83 -85v190q0 5 -3.5 8.5t-8.5 3.5h-10q-5 0 -8.5 -3.5t-3.5 -8.5v-190l-82 85q-4 4 -9 4t-9 -3l-6 -7q-4 -4 -4 -9t4 -8l115 -115q3 -4 8 -4t9 4l115 115q3 3 3 8t-3 8v1z" />
    <glyph glyph-name="globe" unicode="&#xf0ac;" 
d="M504 192q0 67 -33.5 124t-90.5 90.5t-124 33.5t-124 -33.5t-90.5 -90.5t-33.5 -124t33.5 -124t90.5 -90.5t124 -33.5t124 33.5t90.5 90.5t33.5 124zM462 128h-99q10 64 0 128h99q20 -64 0 -128zM256 -22q-47 42 -67 118h134q-20 -76 -67 -118zM181 128q-11 64 0 128h150
q11 -64 0 -128h-150zM256 406q47 -42 67 -118h-134q20 76 67 118zM450 288h-93q-17 68 -54 115q48 -11 86.5 -41t60.5 -74zM209 403q-37 -47 -54 -115h-93q22 44 60.5 74t86.5 41zM50 256h99q-10 -64 0 -128h-99q-20 64 0 128zM62 96h94q16 -68 53 -115q-48 11 -86.5 41
t-60.5 74zM303 -19q37 47 53 115h94q-22 -44 -60.5 -74t-86.5 -41z" />
    <glyph glyph-name="wrench" unicode="&#xf0ad;" 
d="M120 32q0 -10 -7 -17t-17 -7t-17 7t-7 17t7 17t17 7t17 -7t7 -17zM491 208q-22 -37 -58.5 -58.5t-80.5 -21.5q-21 0 -41 5l-174 -174q-24 -23 -57 -23t-56.5 23.5t-23.5 56.5t23 57l174 174q-5 20 -5 41q0 43 21.5 80t58.5 58.5t80.5 21.5t80 -21.5t58.5 -58.5
q9 -16 -0.5 -32t-27.5 -16h-109l-20 -32l20 -32h109q18 0 27.5 -16t0.5 -32zM278 146q-45 23 -68 68l-164 -164q-14 -14 -14 -34t14 -34t34 -14t34 14zM463 224h-127l-40 64l40 64h127q-17 29 -46.5 46.5t-64.5 17.5t-64.5 -17t-46.5 -46.5t-17 -64.5t17 -64.5t46.5 -46.5
t64.5 -17t64.5 17.5t46.5 46.5z" />
    <glyph glyph-name="tasks" unicode="&#xf0ae;" 
d="M506 334h-308q-2 0 -4 2t-2 4v24q0 2 2 4t4 2h308q2 0 4 -2t2 -4v-24q0 -2 -2 -4t-4 -2zM512 180v24q0 2 -2 4t-4 2h-308q-2 0 -4 -2t-2 -4v-24q0 -2 2 -4t4 -2h308q2 0 4 2t2 4zM512 20v24q0 2 -2 4t-4 2h-308q-2 0 -4 -2t-2 -4v-24q0 -2 2 -4t4 -2h308q2 0 4 2t2 4z
M68 72q-15 0 -25.5 -10.5t-10.5 -25.5t10.5 -25.5t25.5 -10.5t25.5 10.5t10.5 25.5t-10.5 25.5t-25.5 10.5zM171 405l-7 8q-4 3 -9 3t-9 -3l-78 -80l-39 39q-3 3 -8 3t-9 -3l-9 -9q-3 -4 -3 -9t3 -8l55 -54q3 -4 8 -4t9 3l96 97q3 4 3 9t-3 8zM171 245l-7 8q-4 3 -9 3t-8 -3
l-79 -80l-38 39q-4 3 -9 3t-8 -3l-9 -9q-4 -4 -4 -9t4 -8l54 -54q4 -4 9 -4t8 4l96 96q4 4 4 9t-4 8z" />
    <glyph glyph-name="filter" unicode="&#xf0b0;" 
d="M480 448h-448q-14 0 -23 -9.5t-9 -22.5t9 -23l183 -182v-187q0 -15 11 -24l64 -56q10 -9 22.5 -8t21.5 10t9 22v243l183 182q9 10 9 23t-9 22.5t-23 9.5zM288 224v-256l-64 56v200l-192 192h448z" />
    <glyph glyph-name="briefcase" unicode="&#xf0b1;" 
d="M464 352h-112v40q0 10 -7 17t-17 7h-144q-10 0 -17 -7t-7 -17v-40h-112q-20 0 -34 -14t-14 -34v-288q0 -20 14 -34t34 -14h416q20 0 34 14t14 34v288q0 20 -14 34t-34 14zM192 384h128v-32h-128v32zM480 16q0 -7 -4.5 -11.5t-11.5 -4.5h-416q-7 0 -11.5 4.5t-4.5 11.5
v144h160v-40q0 -10 7 -17t17 -7h80q10 0 17 7t7 17v40h160v-144zM224 160h64v-32h-64v32zM32 192v112q0 7 4.5 11.5t11.5 4.5h416q7 0 11.5 -4.5t4.5 -11.5v-112h-448z" />
    <glyph glyph-name="arrows-alt" unicode="&#xf0b2;" 
d="M322 68h-50v108h108v-50q0 -15 9.5 -24t23 -9.5t23.5 9.5l66 67q10 9 10 23t-10 23l-66 67q-10 10 -23.5 9.5t-23 -9.5t-9.5 -24v-50h-108v108h50q15 0 24 9.5t9.5 23t-9.5 23.5l-67 66q-9 10 -23 10t-23 -10l-67 -66q-10 -10 -9.5 -23.5t9.5 -23t24 -9.5h50v-108h-108
v50q0 15 -9.5 24t-23 9.5t-23.5 -9.5l-66 -67q-10 -9 -10 -23t10 -23l66 -67q10 -10 23.5 -9.5t23 9.5t9.5 24v50h108v-108h-50q-15 0 -24 -9.5t-9.5 -23t9.5 -23.5l67 -66q9 -10 23 -10t23 10l67 66q10 10 9.5 23.5t-9.5 23t-24 9.5zM415 261l67 -66q1 -1 1 -3t-1 -3
l-67 -66q-2 -2 -4.5 -1t-2.5 4v132q0 3 2.5 4t4.5 -1zM190 344q-3 0 -4 2.5t1 4.5l66 67q1 1 3 1t3 -1l66 -67q2 -2 1 -4.5t-4 -2.5h-132zM97 123l-67 66q-1 1 -1 3t1 3l67 66q2 2 4.5 1t2.5 -4v-132q0 -3 -2.5 -4t-4.5 1zM253 -34l-66 67q-2 2 -1 4.5t4 2.5h132q3 0 4 -2.5
t-1 -4.5l-66 -67q-1 -1 -3 -1t-3 1z" />
    <glyph glyph-name="users" unicode="&#xf0c0;" horiz-adv-x="640" 
d="M573 199q19 25 19 57q0 40 -28 68t-67.5 28t-68.5 -28q-7 12 -17 23q-19 18 -42 27.5t-49 9.5t-49 -9.5t-42 -27.5q-10 -11 -17 -23q-29 28 -68.5 28t-67.5 -28t-28 -68q0 -32 19 -57q-29 -5 -48 -27t-19 -52v-44q0 -18 13 -31t31 -13h118q4 -14 15.5 -23t26.5 -9h232
q15 0 26.5 9t15.5 23h118q18 0 31 13t13 31v44q0 30 -19 52t-48 27zM496 320q27 0 45.5 -18.5t18.5 -45.5t-18.5 -45.5t-45.5 -18.5q-16 0 -30 7.5t-23 20.5q5 18 5 36t-5 36q9 13 23 20.5t30 7.5zM320 352q40 0 68 -28t28 -68t-28 -68t-68 -28t-68 28t-28 68t28 68t68 28z
M144 320q16 0 30 -7.5t23 -20.5q-5 -18 -5 -36t5 -36q-9 -13 -23 -20.5t-30 -7.5q-27 0 -45.5 18.5t-18.5 45.5t18.5 45.5t45.5 18.5zM160 96v-32h-116q-5 0 -8.5 3.5t-3.5 8.5v44q0 20 14 34t34 14h26q18 -8 38 -8t38 8h23q-20 -10 -32.5 -29.5t-12.5 -42.5zM448 44
q0 -5 -3.5 -8.5t-8.5 -3.5h-232q-5 0 -8.5 3.5t-3.5 8.5v52q0 20 14 34t34 14h18q28 -16 61.5 -16t62.5 16h18q20 0 34 -14t14 -34v-52zM608 76q0 -5 -3.5 -8.5t-8.5 -3.5h-116v32q0 23 -12.5 42.5t-32.5 29.5h23q18 -8 38 -8t38 8h26q20 0 34 -14t14 -34v-44z" />
    <glyph glyph-name="link" unicode="&#xf0c1;" 
d="M301 53l-79 -79q-25 -25 -58.5 -33.5t-67 0t-58.5 33.5t-33.5 58.5t0 67t33.5 58.5l83 83q5 5 12.5 2t7.5 -10.5t1 -14t-3 -10.5l-75 -76q-28 -27 -28 -66t27.5 -66.5t66.5 -27.5t66 28l80 79q27 28 27 66.5t-27 66.5q-12 12 -28 19q-8 3 -7.5 11t3.5 16q1 5 6 7t10 0
q23 -10 41 -28q25 -25 34 -58.5t0 -67t-34 -58.5zM211 147q18 -18 41 -28q5 -2 10 0t6 7q3 8 3.5 16t-7.5 11q-16 7 -28 19q-27 28 -27 66.5t27 66.5l80 79q27 28 66 28t66.5 -27.5t27.5 -66.5t-28 -66l-75 -76q-4 -4 -3 -10.5t1 -14t7.5 -10.5t12.5 2l83 83
q25 25 33.5 58.5t0 67t-33.5 58.5t-58.5 33.5t-67 0t-58.5 -33.5l-79 -79q-25 -25 -34 -58.5t0 -67t34 -58.5z" />
    <glyph glyph-name="cloud" unicode="&#xf0c2;" horiz-adv-x="640" 
d="M272 384q45 0 81 -25t52 -65q24 26 58 26t57.5 -23.5t23.5 -56.5q0 -28 -17 -49q35 -6 58 -32.5t23 -62.5q0 -40 -28 -68t-68 -28h-368q-30 0 -56 15t-41 41t-15 56q0 42 28 73.5t69 37.5q-1 8 -1 17q0 39 19.5 72t52.5 52.5t72 19.5zM272 416q-46 0 -86 -22.5t-64 -61
t-26 -84.5q-43 -15 -69.5 -52.5t-26.5 -83.5q0 -39 19.5 -72t52.5 -52.5t72 -19.5h368q35 0 64.5 17t46.5 46.5t17 64.5t-18.5 65.5t-49.5 47.5q4 15 4 31q0 30 -15 56t-41 41t-56 15q-25 0 -48 -11q-24 35 -62 55t-82 20z" />
    <glyph glyph-name="flask" unicode="&#xf0c3;" horiz-adv-x="448" 
d="M435 37l-147 192v187h26q2 0 4 2t2 4v20q0 2 -2 4t-4 2h-180q-2 0 -4 -2t-2 -4v-20q0 -2 2 -4t4 -2h26v-187l-147 -192q-15 -20 -12.5 -44t20 -40.5t42.5 -16.5h322q25 0 42.5 16.5t20 40.5t-12.5 44zM385 -32h-322q-12 0 -21 8t-10 20t7 22l150 196q3 5 3 10v192h64
v-192q0 -5 3 -10l151 -196q7 -10 6 -22t-10 -20t-21 -8z" />
    <glyph glyph-name="cut" unicode="&#xf0c4;" horiz-adv-x="448" 
d="M250 192l197 197q1 1 1 3t-1 3q-10 9 -23 9t-22 -9l-178 -178l-49 49q17 24 17 54q0 40 -28 68t-68 28t-68 -28t-28 -68t28 -68t68 -28q30 0 54 17l49 -49l-49 -49q-24 17 -54 17q-40 0 -68 -28t-28 -68t28 -68t68 -28t68 28t28 68q0 30 -17 54l49 49l178 -178
q9 -9 22 -9t23 9q1 1 1 3t-1 3zM96 256q-26 0 -45 19t-19 45t19 45t45 19t45 -19t19 -45t-19 -45t-45 -19zM96 0q-26 0 -45 19t-19 45t19 45t45 19t45 -19t19 -45t-19 -45t-45 -19zM232 192q0 -3 -2.5 -5.5t-5.5 -2.5t-5.5 2.5t-2.5 5.5t2.5 5.5t5.5 2.5t5.5 -2.5t2.5 -5.5z
" />
    <glyph glyph-name="copy" unicode="&#xf0c5;" horiz-adv-x="448" 
d="M434 382l-52 52q-14 14 -34 14h-172q-20 0 -34 -14t-14 -34v-48h-80q-20 0 -34 -14t-14 -34v-320q0 -20 14 -34t34 -14h224q20 0 34 14t14 34v48h80q20 0 34 14t14 34v268q0 20 -14 34zM352 416q4 -2 7 -5l52 -52q3 -3 5 -7h-64v64zM288 -16q0 -7 -4.5 -11.5t-11.5 -4.5
h-224q-7 0 -11.5 4.5t-4.5 11.5v320q0 7 4.5 11.5t11.5 4.5h80v-240q0 -20 14 -34t34 -14h112v-48zM416 80q0 -7 -4.5 -11.5t-11.5 -4.5h-224q-7 0 -11.5 4.5t-4.5 11.5v320q0 7 4.5 11.5t11.5 4.5h144v-72q0 -10 7 -17t17 -7h72v-240z" />
    <glyph glyph-name="paperclip" unicode="&#xf0c6;" 
d="M149 -64q-25 0 -49 9.5t-42 28.5q-25 25 -33.5 58t0 66.5t33.5 57.5l262 263q29 29 71 29t71.5 -29.5t29.5 -71.5t-29 -71l-223 -223q-21 -21 -51.5 -21t-51.5 21t-21 51.5t21 51.5l171 170q3 4 8 4t8 -4l6 -5q4 -4 4 -9t-4 -8l-170 -171q-12 -12 -12 -28.5t12 -28.5
t28.5 -12t28.5 12l223 222q20 21 20 49.5t-20 48.5t-48.5 20t-49.5 -20l-262 -262q-28 -29 -28 -69t28.5 -68.5t68.5 -28.5t69 28l218 218q3 4 8 4t9 -4l5 -6q4 -3 4 -8t-4 -8l-218 -218q-18 -19 -42 -28.5t-49 -9.5z" />
    <glyph glyph-name="save" unicode="&#xf0c7;" horiz-adv-x="448" 
d="M434 318l-84 84q-14 14 -34 14h-268q-20 0 -34 -14t-14 -34v-352q0 -20 14 -34t34 -14h352q20 0 34 14t14 34v268q0 20 -14 34zM288 384v-96h-192v96h192zM416 16q0 -7 -4.5 -11.5t-11.5 -4.5h-352q-7 0 -11.5 4.5t-4.5 11.5v352q0 7 4.5 11.5t11.5 4.5h16v-104
q0 -10 7 -17t17 -7h208q10 0 17 7t7 17v104q4 -2 7 -5l84 -84q5 -4 5 -11v-268zM224 216q-36 0 -62 -26t-26 -62t26 -62t62 -26t62 26t26 62t-26 62t-62 26zM224 72q-23 0 -39.5 16.5t-16.5 39.5t16.5 39.5t39.5 16.5t39.5 -16.5t16.5 -39.5t-16.5 -39.5t-39.5 -16.5z" />
    <glyph glyph-name="bars" unicode="&#xf0c9;" horiz-adv-x="448" 
d="M442 334h-436q-2 0 -4 2t-2 4v24q0 2 2 4t4 2h436q2 0 4 -2t2 -4v-24q0 -2 -2 -4t-4 -2zM442 174h-436q-2 0 -4 2t-2 4v24q0 2 2 4t4 2h436q2 0 4 -2t2 -4v-24q0 -2 -2 -4t-4 -2zM442 14h-436q-2 0 -4 2t-2 4v24q0 2 2 4t4 2h436q2 0 4 -2t2 -4v-24q0 -2 -2 -4t-4 -2z
" />
    <glyph glyph-name="list-ul" unicode="&#xf0ca;" 
d="M506 334h-372q-2 0 -4 2t-2 4v24q0 2 2 4t4 2h372q2 0 4 -2t2 -4v-24q0 -2 -2 -4t-4 -2zM512 180v24q0 2 -2 4t-4 2h-372q-2 0 -4 -2t-2 -4v-24q0 -2 2 -4t4 -2h372q2 0 4 2t2 4zM512 20v24q0 2 -2 4t-4 2h-372q-2 0 -4 -2t-2 -4v-24q0 -2 2 -4t4 -2h372q2 0 4 2t2 4z
M48 388q-15 0 -25.5 -10.5t-10.5 -25.5t10.5 -25.5t25.5 -10.5t25.5 10.5t10.5 25.5t-10.5 25.5t-25.5 10.5zM48 228q-15 0 -25.5 -10.5t-10.5 -25.5t10.5 -25.5t25.5 -10.5t25.5 10.5t10.5 25.5t-10.5 25.5t-25.5 10.5zM48 68q-15 0 -25.5 -10.5t-10.5 -25.5t10.5 -25.5
t25.5 -10.5t25.5 10.5t10.5 25.5t-10.5 25.5t-25.5 10.5z" />
    <glyph glyph-name="list-ol" unicode="&#xf0cb;" 
d="M5 305q0 10 10 10h18v63l-2 -2q-1 -3 -2 -4l-2 -1q-7 -7 -14 0l-4 5q-7 8 0 14l22 21q5 5 12 5h10q10 0 10 -10v-91h18q10 0 10 -10v-7q0 -10 -10 -10h-66q-10 0 -10 10v7zM4 142q0 18 12 33q7 8 24 20q10 7 13 10q5 5 5 10.5t-4 8.5t-10.5 3t-13 -6.5t-13.5 -1.5l-6 5
q-8 6 -3 13q14 19 39 19q18 0 30 -9q13 -11 13 -30q0 -16 -11 -28q-7 -7 -23 -17q-9 -6 -12 -9q-6 -4 -6 -9h45q9 0 9 -9v-7q0 -10 -9 -10h-69q-10 0 -10 10v4zM7 -8l4 8q5 8 14 2.5t17.5 -5.5t13 3.5t4.5 9.5q0 13 -23 13h-1q-7 0 -11 7v2q-4 6 2 12l11 14l11 12h-12h-20
q-10 0 -10 9v7q0 10 10 10h60q10 0 10 -10v-2q0 -7 -5 -12l-21 -25q14 -3 22 -13t8 -23q0 -18 -12 -30.5t-33 -12.5t-37 11q-8 5 -2 13zM512 340v24q0 2 -2 4t-4 2h-372q-2 0 -4 -2t-2 -4v-24q0 -2 2 -4t4 -2h372q2 0 4 2t2 4zM512 180v24q0 2 -2 4t-4 2h-372q-2 0 -4 -2
t-2 -4v-24q0 -2 2 -4t4 -2h372q2 0 4 2t2 4zM512 20v24q0 2 -2 4t-4 2h-372q-2 0 -4 -2t-2 -4v-24q0 -2 2 -4t4 -2h372q2 0 4 2t2 4z" />
    <glyph glyph-name="strikethrough" unicode="&#xf0cc;" 
d="M500 176h-488q-5 0 -8.5 3.5t-3.5 8.5v8q0 5 3.5 8.5t8.5 3.5h488q5 0 8.5 -3.5t3.5 -8.5v-8q0 -5 -3.5 -8.5t-8.5 -3.5zM301 160q28 -15 42 -32q16 -21 16 -51q0 -42 -30 -65q-29 -22 -75 -22q-38 0 -67 14q-35 17 -35 47v9q0 5 -3.5 8.5t-8.5 3.5h-10q-5 0 -8.5 -3.5
t-3.5 -8.5v-16q0 -28 22 -49q19 -19 52 -29q30 -9 62 -9q61 0 100.5 33.5t39.5 90.5q0 48 -30 79h-63zM163 224h75q-38 16 -54 31q-22 21 -22 53q0 38 28 60q26 19 68 19q30 0 57 -10q33 -13 33 -34v-11q0 -5 3.5 -8.5t8.5 -3.5h11q5 0 8.5 3.5t3.5 8.5v20q0 31 -40 51
q-36 17 -85 17q-57 0 -93 -30q-39 -31 -39 -85q0 -51 37 -81z" />
    <glyph glyph-name="underline" unicode="&#xf0cd;" horiz-adv-x="448" 
d="M0 -52v8q0 5 3.5 8.5t8.5 3.5h424q5 0 8.5 -3.5t3.5 -8.5v-8q0 -5 -3.5 -8.5t-8.5 -3.5h-424q-5 0 -8.5 3.5t-3.5 8.5zM291 436v-8q0 -5 3.5 -8.5t8.5 -3.5h43v-227q0 -63 -32.5 -95.5t-90 -32.5t-88.5 31q-33 33 -33 96v228h43q5 0 8.5 3.5t3.5 8.5v8q0 5 -3.5 8.5
t-8.5 3.5h-118q-5 0 -8.5 -3.5t-3.5 -8.5v-8q0 -5 3.5 -8.5t8.5 -3.5h42v-229q0 -78 44 -119q40 -39 110.5 -39t111.5 40q44 42 44 118v229h42q5 0 8.5 3.5t3.5 8.5v8q0 5 -3.5 8.5t-8.5 3.5h-118q-5 0 -8.5 -3.5t-3.5 -8.5z" />
    <glyph glyph-name="table" unicode="&#xf0ce;" 
d="M464 416h-416q-20 0 -34 -14t-14 -34v-352q0 -20 14 -34t34 -14h416q20 0 34 14t14 34v352q0 20 -14 34t-34 14zM160 0h-112q-7 0 -11.5 4.5t-4.5 11.5v80h128v-96zM160 128h-128v96h128v-96zM160 256h-128v96h128v-96zM320 0h-128v96h128v-96zM320 128h-128v96h128v-96z
M320 256h-128v96h128v-96zM480 96v-80q0 -7 -4.5 -11.5t-11.5 -4.5h-112v96h128zM480 128h-128v96h128v-96zM480 256h-128v96h128v-96z" />
    <glyph glyph-name="magic" unicode="&#xf0d0;" 
d="M176 387l6 -13l14 -2l-10 -9l3 -14l-13 6l-12 -6l2 14l-10 9l14 2zM171 413l-12 -24l-26 -4q-4 0 -5 -3.5t2 -6.5l19 -18l-5 -26q0 -4 2.5 -6t6.5 0l23 12l23 -12q4 -2 6.5 0t2.5 6l-5 26l19 19q3 2 2 5.5t-5 3.5l-26 4l-12 24q-1 3 -5 3t-5 -3zM269 429l-8 -15l-18 -3
q-2 0 -3 -2.5t1 -3.5l13 -13l-3 -17q-1 -3 1 -4t4 0l16 8l16 -8q2 -1 4 0t1 4l-3 17l13 13q2 1 1 3.5t-3 2.5l-18 3l-8 15q-1 3 -3 3t-3 -3zM77 429l-8 -15l-18 -3q-2 0 -3 -2.5t1 -3.5l13 -13l-3 -17q-1 -3 1 -4t4 0l16 8l16 -8q2 -1 4 0t1 4l-3 17l13 13q2 1 1 3.5t-3 2.5
l-18 3l-8 15q-1 3 -3 3t-3 -3zM461 238l-8 -16l-18 -2q-2 -1 -3 -3t1 -4l13 -12l-3 -18q-1 -2 1 -3.5t4 -0.5l16 9l16 -9q2 -1 4 0.5t1 3.5l-3 18l13 12q2 2 1 4t-3 3l-18 2l-8 16q-1 2 -3 2t-3 -2zM76 -55l-67 67q-9 9 -9 22.5t9 22.5l382 382q9 9 22.5 9t22.5 -9l67 -67
q9 -9 9 -22.5t-9 -22.5l-382 -382q-9 -9 -22.5 -9t-22.5 9zM358 227l-67 67l-259 -259l67 -67zM480 349l-67 67l-99 -99l67 -67z" />
    <glyph glyph-name="truck" unicode="&#xf0d1;" horiz-adv-x="640" 
d="M592 416h-320q-20 0 -34 -14t-14 -34v-48h-44q-20 0 -34 -14l-100 -100q-14 -14 -14 -34v-108h-12q-5 0 -8.5 -3.5t-3.5 -8.5v-8q0 -5 3.5 -8.5t8.5 -3.5h46q-2 -8 -2 -16q0 -33 23.5 -56.5t56.5 -23.5t56.5 23.5t23.5 56.5q0 8 -2 16h196q-2 -8 -2 -16q0 -33 23.5 -56.5
t56.5 -23.5t56.5 23.5t23.5 56.5q0 8 -2 16h18q20 0 34 14t14 34v288q0 20 -14 34t-34 14zM224 64h-16q-11 15 -28 23.5t-36 8.5t-36 -8.5t-28 -23.5h-16v108q0 7 5 11l100 100q4 5 11 5h44v-224zM608 80q0 -7 -4.5 -11.5t-11.5 -4.5h-32q-11 15 -28 23.5t-36 8.5t-36 -8.5
t-28 -23.5h-176v304q0 7 4.5 11.5t11.5 4.5h320q7 0 11.5 -4.5t4.5 -11.5v-288zM106 170l76 76q3 3 6.5 1.5t3.5 -5.5v-76q0 -2 -2 -4t-4 -2h-76q-4 0 -5.5 3.5t1.5 6.5zM496 64q20 0 34 -14t14 -34t-14 -34t-34 -14t-34 14t-14 34t14 34t34 14zM144 64q20 0 34 -14t14 -34
t-14 -34t-34 -14t-34 14t-14 34t14 34t34 14z" />
    <glyph glyph-name="money-bill" unicode="&#xf0d6;" horiz-adv-x="640" 
d="M616 352h-592q-10 0 -17 -7t-7 -17v-272q0 -10 7 -17t17 -7h592q10 0 17 7t7 17v272q0 10 -7 17t-17 7zM608 128q-27 0 -45.5 -18.5t-18.5 -45.5h-448q0 27 -18.5 45.5t-45.5 18.5v128q27 0 45.5 18.5t18.5 45.5h448q0 -27 18.5 -45.5t45.5 -18.5v-128zM400 192
q0 -40 -23.5 -68t-56.5 -28t-56.5 28t-23.5 68t23.5 68t56.5 28t56.5 -28t23.5 -68z" />
    <glyph glyph-name="caret-down" unicode="&#xf0d7;" horiz-adv-x="320" 
d="M288 288h-256q-14 0 -23 -9.5t-9 -22.5t9 -23l128 -128q10 -9 23 -9t23 9l128 128q9 10 9 23t-9 22.5t-23 9.5zM160 128l-128 128h256z" />
    <glyph glyph-name="caret-up" unicode="&#xf0d8;" horiz-adv-x="320" 
d="M32 96h256q14 0 23 9.5t9 22.5t-9 23l-128 128q-10 9 -23 9t-23 -9l-128 -128q-9 -10 -9 -23t9 -22.5t23 -9.5zM160 256l128 -128h-256z" />
    <glyph glyph-name="caret-left" unicode="&#xf0d9;" horiz-adv-x="192" 
d="M192 64v256q0 14 -9.5 23t-22.5 9t-23 -9l-128 -128q-9 -10 -9 -23t9 -23l128 -128q10 -9 23 -9t22.5 9t9.5 23zM32 192l128 128v-256z" />
    <glyph glyph-name="caret-right" unicode="&#xf0da;" horiz-adv-x="192" 
d="M0 320v-256q0 -14 9.5 -23t22.5 -9t23 9l128 128q9 10 9 23t-9 23l-128 128q-10 9 -23 9t-22.5 -9t-9.5 -23zM160 192l-128 -128v256z" />
    <glyph glyph-name="columns" unicode="&#xf0db;" 
d="M464 416h-416q-20 0 -34 -14t-14 -34v-352q0 -20 14 -34t34 -14h416q20 0 34 14t14 34v352q0 20 -14 34t-34 14zM240 0h-192q-7 0 -11.5 4.5t-4.5 11.5v336h208v-352zM480 16q0 -7 -4.5 -11.5t-11.5 -4.5h-192v352h208v-336z" />
    <glyph glyph-name="sort" unicode="&#xf0dc;" horiz-adv-x="320" 
d="M288 160h-256q-14 0 -23 -9.5t-9 -22.5t9 -23l128 -128q10 -9 23 -9t23 9l128 128q9 10 9 23t-9 22.5t-23 9.5zM160 0l-128 128h256zM32 224h256q14 0 23 9.5t9 22.5t-9 23l-128 128q-10 9 -23 9t-23 -9l-128 -128q-9 -10 -9 -23t9 -22.5t23 -9.5zM160 384l128 -128h-256
z" />
    <glyph glyph-name="sort-down" unicode="&#xf0dd;" horiz-adv-x="320" 
d="M288 160h-256q-14 0 -23 -9.5t-9 -22.5t9 -23l128 -128q10 -9 23 -9t23 9l128 128q9 10 9 23t-9 22.5t-23 9.5zM160 0l-128 128h256z" />
    <glyph glyph-name="sort-up" unicode="&#xf0de;" horiz-adv-x="320" 
d="M32 224h256q14 0 23 9.5t9 22.5t-9 23l-128 128q-10 9 -23 9t-23 -9l-128 -128q-9 -10 -9 -23t9 -22.5t23 -9.5zM160 384l128 -128h-256z" />
    <glyph glyph-name="envelope" unicode="&#xf0e0;" 
d="M464 384h-416q-20 0 -34 -14t-14 -34v-288q0 -20 14 -34t34 -14h416q20 0 34 14t14 34v288q0 20 -14 34t-34 14zM48 352h416q7 0 11.5 -4.5t4.5 -11.5v-41q-35 -30 -151 -122l-10 -8q-20 -17 -31 -24q-19 -13 -32 -13t-32 13q-12 7 -32 24l-9 8q-116 92 -151 122v41
q0 7 4.5 11.5t11.5 4.5zM464 32h-416q-7 0 -11.5 4.5t-4.5 11.5v205q35 -28 131 -105l10 -8q23 -20 38 -29q25 -15 45 -15t45 15q14 9 38 29l10 8q96 77 131 105v-205q0 -7 -4.5 -11.5t-11.5 -4.5z" />
    <glyph glyph-name="undo" unicode="&#xf0e2;" 
d="M20 440h10q5 0 8.5 -3.5t3.5 -8.5v-111q33 57 90 90t124.5 33t124.5 -33.5t90 -90.5t33 -124.5t-33.5 -124t-90.5 -90t-124 -33.5q-47 0 -90 17t-76 47q-4 3 -4 8.5t3 8.5l7 7q4 4 8.5 4t8.5 -3q29 -26 65.5 -40.5t77.5 -14.5q58 0 107 28.5t78 78t29 107.5t-28.5 107
t-78 78t-107.5 29q-61 0 -112 -31.5t-78 -84.5h114q5 0 8.5 -3.5t3.5 -8.5v-10q0 -5 -3.5 -8.5t-8.5 -3.5h-160q-5 0 -8.5 3.5t-3.5 8.5v160q0 5 3.5 8.5t8.5 3.5z" />
    <glyph glyph-name="gavel" unicode="&#xf0e3;" 
d="M501 261l-21 21q-9 10 -22.5 11t-23.5 -5l-82 82q6 10 5 23.5t-11 22.5l-21 21q-11 11 -26.5 11t-26.5 -11l-114 -114q-11 -11 -11 -26.5t11 -26.5l21 -21q9 -9 22.5 -10.5t24.5 5.5l29 -30l-58 -59l-9 8q-12 13 -30 13t-31 -13l-114 -114q-13 -13 -13 -31t13 -30l39 -39
q12 -13 30 -13t31 13l114 114q13 13 13 31t-13 30l-8 9l59 58l30 -29q-7 -11 -5.5 -24.5t10.5 -22.5l21 -21q11 -11 26.5 -11t26.5 11l114 114q11 11 11 26.5t-11 26.5zM205 86l-115 -115q-3 -3 -8 -3t-8 3v0l-39 39q-3 3 -3 8t3 8l115 115q3 3 8 3t8 -3l39 -39q3 -3 3 -8
t-3 -8zM478 230l-113 -113q-2 -2 -4.5 -2t-4.5 2l-20 21q-2 1 -2 3.5t2 4.5l16 16l-126 126l-16 -16q-2 -2 -4.5 -2t-3.5 2l-21 20q-2 2 -2 4.5t2 4.5l113 113q2 2 4.5 2t4.5 -2l20 -20q2 -2 2 -4.5t-2 -4.5l-16 -16l126 -126l16 16q2 2 4.5 2t4.5 -2l20 -20q2 -2 2 -4.5
t-2 -4.5z" />
    <glyph glyph-name="tachometer" unicode="&#xf0e4;" horiz-adv-x="576" 
d="M365 311q-6 2 -12 -0.5t-8 -9.5l-51 -141q-28 2 -49 -17t-21 -46.5t18.5 -46t45.5 -18.5t45.5 18.5t18.5 45.5q0 16 -7.5 30t-20.5 23l51 142q2 6 -0.5 12t-9.5 8zM288 64q-13 0 -22.5 9.5t-9.5 22.5t9.5 22.5t22.5 9.5t22.5 -9.5t9.5 -22.5t-9.5 -22.5t-22.5 -9.5z
M288 416q-78 0 -145 -39q-66 -38 -104 -104q-39 -67 -39 -145q0 -72 33 -134q6 -12 17.5 -19t25.5 -7h424q14 0 25.5 7t17.5 19q33 62 33 134q0 78 -39 145q-38 66 -104 104q-67 39 -145 39zM514 9q-4 -9 -14 -9h-424q-10 0 -14 9q-30 55 -30 119q0 70 34.5 128.5t93 93
t128.5 34.5t128.5 -34.5t93 -93t34.5 -128.5q0 -64 -30 -119z" />
    <glyph glyph-name="bolt" unicode="&#xf0e7;" horiz-adv-x="320" 
d="M186 416q8 0 13 -6.5t3 -13.5l-34 -124h104q9 0 13.5 -8t0.5 -16l-152 -272q-5 -8 -13.5 -8t-13 6t-2.5 14l49 188h-106q-7 0 -12 5t-4 13l20 208q0 6 5 10t11 4h118zM186 448h-118q-19 0 -32.5 -12.5t-15.5 -30.5l-20 -208q-2 -22 12.5 -37.5t35.5 -15.5h64l-38 -148
q-6 -23 8.5 -41.5t37.5 -18.5q13 0 24 6.5t18 18.5l152 272q9 15 5.5 32t-16.5 28t-31 11h-62l22 84q7 22 -7.5 41t-38.5 19z" />
    <glyph glyph-name="sitemap" unicode="&#xf0e8;" horiz-adv-x="640" 
d="M616 128h-72v48q0 20 -14 34t-34 14h-160v32h56q10 0 17 7t7 17v144q0 10 -7 17t-17 7h-144q-10 0 -17 -7t-7 -17v-144q0 -10 7 -17t17 -7h56v-32h-160q-20 0 -34 -14t-14 -34v-48h-72q-10 0 -17 -7t-7 -17v-144q0 -10 7 -17t17 -7h144q10 0 17 7t7 17v144q0 10 -7 17
t-17 7h-40v48q0 7 4.5 11.5t11.5 4.5h160v-64h-56q-10 0 -17 -7t-7 -17v-144q0 -10 7 -17t17 -7h144q10 0 17 7t7 17v144q0 10 -7 17t-17 7h-56v64h160q7 0 11.5 -4.5t4.5 -11.5v-48h-40q-10 0 -17 -7t-7 -17v-144q0 -10 7 -17t17 -7h144q10 0 17 7t7 17v144q0 10 -7 17
t-17 7zM160 96v-128h-128v128h128zM384 96v-128h-128v128h128zM256 288v128h128v-128h-128zM608 -32h-128v128h128v-128z" />
    <glyph glyph-name="umbrella" unicode="&#xf0e9;" horiz-adv-x="576" 
d="M575 194q-14 60 -55 107q-39 44 -95.5 70t-120.5 29v32q0 7 -4.5 11.5t-11.5 4.5t-11.5 -4.5t-4.5 -11.5v-32q-64 -3 -120.5 -29t-95.5 -70q-41 -46 -55 -107q-3 -11 4 -20.5t18.5 -11.5t21.5 7q36 33 68 24q29 -8 57 -51q9 -14 23.5 -13.5t22.5 13.5q14 21 24 32
q15 15 32 19v-177q0 -20 -14 -34t-34 -14t-34 14t-14 34q0 7 -4.5 11.5t-11.5 4.5t-11.5 -4.5t-4.5 -11.5q0 -33 23.5 -56.5t56.5 -23.5t56.5 23.5t23.5 56.5v177q19 -5 34 -21q8 -8 20 -27l2 -3q8 -13 22.5 -13.5t23.5 13.5q28 43 58 51q32 9 67 -24q10 -9 21.5 -7
t18.5 11.5t4 20.5zM383 166q-18 29 -42.5 45t-52.5 16q-31 0 -55 -18q-20 -14 -40 -43q-20 32 -47 47.5t-55.5 13t-53.5 -21.5q17 51 56 89q38 35 89 54.5t106 19.5t106.5 -19.5t88.5 -55.5q40 -38 56 -89q-42 32 -84 20q-39 -11 -72 -58z" />
    <glyph glyph-name="paste" unicode="&#xf0ea;" horiz-adv-x="448" 
d="M434 254l-52 52q-14 14 -34 14h-28v48q0 20 -14 34t-34 14h-67q-5 14 -17.5 23t-27.5 9t-27.5 -9t-17.5 -23h-67q-20 0 -34 -14t-14 -34v-288q0 -20 14 -34t34 -14h80v-48q0 -20 14 -34t34 -14h224q20 0 34 14t14 34v236q0 20 -14 34zM411 231q3 -3 5 -7h-64v64
q4 -2 7 -5zM160 418q7 0 12.5 -5.5t5.5 -12.5t-5.5 -12.5t-12.5 -5.5t-12.5 5.5t-5.5 12.5t5.5 12.5t12.5 5.5zM48 64q-7 0 -11.5 4.5t-4.5 11.5v288q0 7 4.5 11.5t11.5 4.5h67q5 -14 17.5 -23t27.5 -9t27.5 9t17.5 23h67q7 0 11.5 -4.5t4.5 -11.5v-48h-112q-20 0 -34 -14
t-14 -34v-208h-80zM400 -32h-224q-7 0 -11.5 4.5t-4.5 11.5v288q0 7 4.5 11.5t11.5 4.5h144v-72q0 -10 7 -17t17 -7h72v-208q0 -7 -4.5 -11.5t-11.5 -4.5z" />
    <glyph glyph-name="lightbulb" unicode="&#xf0eb;" horiz-adv-x="384" 
d="M192 368q0 -7 -4.5 -11.5t-11.5 -4.5q-26 0 -45 -19t-19 -45q0 -7 -4.5 -11.5t-11.5 -4.5t-11.5 4.5t-4.5 11.5q0 40 28 68t68 28q7 0 11.5 -4.5t4.5 -11.5zM368 272q0 -40 -11 -66q-8 -16 -29 -42q-16 -20 -25 -34q-15 -23 -26 -51q-1 -4 -5 -8v-87q0 -8 -5 -15l-20 -24
q-7 -9 -19 -9h-72q-12 0 -19 9l-20 24q-5 7 -5 15v87q-4 4 -6 8q-10 29 -25 51q-9 14 -25 34q-22 26 -29 43q-11 26 -11 66q0 48 24 88t64 63.5t88 23.5t88.5 -23.5t64 -64t23.5 -88.5zM240 0h-96v-13l15 -19h66l15 19v13zM240 64h-96v-32h96v32zM336 272q0 39 -19.5 72
t-52.5 52.5t-72 19.5t-72 -19.5t-52.5 -52.5t-19.5 -72q0 -33 9 -54q6 -13 24 -34q17 -20 26 -34q15 -23 27 -54h116q12 31 27 54q9 14 26 33q18 22 24 35q9 21 9 54z" />
    <glyph glyph-name="exchange" unicode="&#xf0ec;" 
d="M508 264l-92 -92q-4 -4 -8.5 -4t-8.5 4l-7 7q-4 3 -4 8t4 9l61 60h-441q-5 0 -8.5 3.5t-3.5 8.5v8q0 5 3.5 8.5t8.5 3.5h441l-61 60q-4 4 -4 9t4 8l7 7q4 4 8.5 4t8.5 -4l92 -92q4 -3 4 -8t-4 -8zM4 104l92 -92q4 -4 8.5 -4t8.5 4l7 7q4 3 4 8t-4 9l-61 60h441
q5 0 8.5 3.5t3.5 8.5v8q0 5 -3.5 8.5t-8.5 3.5h-441l61 60q4 4 4 9t-4 8l-7 7q-4 4 -8.5 4t-8.5 -4l-92 -92q-4 -3 -4 -8t4 -8z" />
    <glyph glyph-name="cloud-download" unicode="&#xf0ed;" horiz-adv-x="640" 
d="M272 384q45 0 81 -25t52 -65q24 26 58 26t57.5 -23.5t23.5 -56.5q0 -28 -17 -49q35 -6 58 -32.5t23 -62.5q0 -40 -28 -68t-68 -28h-368q-30 0 -56 15t-41 41t-15 56q0 42 28 73.5t69 37.5q-1 8 -1 17q0 39 19.5 72t52.5 52.5t72 19.5zM272 416q-46 0 -86 -22.5t-64 -61
t-26 -84.5q-43 -15 -69.5 -52.5t-26.5 -83.5q0 -39 19.5 -72t52.5 -52.5t72 -19.5h368q35 0 64.5 17t46.5 46.5t17 64.5t-18.5 65.5t-49.5 47.5q4 15 4 31q0 30 -15 56t-41 41t-56 15q-25 0 -48 -11q-24 35 -62 55t-82 20zM288 276v-151l-68 68q-4 4 -9 4t-8 -4l-6 -5
q-3 -4 -3 -9t3 -8l99 -99q3 -3 8 -3t8 3l99 99q3 3 3 8t-3 9l-6 5q-3 4 -8 4t-9 -4l-68 -68v151q0 5 -3.5 8.5t-8.5 3.5h-8q-5 0 -8.5 -3.5t-3.5 -8.5z" />
    <glyph glyph-name="cloud-upload" unicode="&#xf0ee;" horiz-adv-x="640" 
d="M272 384q45 0 81 -25t52 -65q24 26 58 26t57.5 -23.5t23.5 -56.5q0 -28 -17 -49q35 -6 58 -32.5t23 -62.5q0 -40 -28 -68t-68 -28h-368q-30 0 -56 15t-41 41t-15 56q0 42 28 73.5t69 37.5q-1 8 -1 17q0 39 19.5 72t52.5 52.5t72 19.5zM272 416q-46 0 -86 -22.5t-64 -61
t-26 -84.5q-43 -15 -69.5 -52.5t-26.5 -83.5q0 -39 19.5 -72t52.5 -52.5t72 -19.5h368q35 0 64.5 17t46.5 46.5t17 64.5t-18.5 65.5t-49.5 47.5q4 15 4 31q0 30 -15 56t-41 41t-56 15q-25 0 -48 -11q-24 35 -62 55t-82 20zM320 76v151l68 -68q4 -4 9 -4t8 4l6 5q3 4 3 9
t-3 8l-99 99q-3 3 -8 3t-8 -3l-99 -99q-3 -3 -3 -8t3 -9l6 -5q3 -4 8 -4t9 4l68 68v-151q0 -5 3.5 -8.5t8.5 -3.5h8q5 0 8.5 3.5t3.5 8.5z" />
    </font>
</defs>
</svg>
